  0
SECTION
  2
HEADER
  9
$ACADVER
  1
AC1015
  9
$ACADMAINTVER
 70
     6
  9
$DWGCODEPAGE
  3
ANSI_1252
  9
$INSBASE
 10
0.0
 20
0.0
 30
0.0
  9
$EXTMIN
 10
0.0
 20
0.0
 30
0.0
  9
$EXTMAX
 10
210.0000000000002
 20
297.0000000000001
 30
0.0
  9
$LIMMIN
 10
0.0
 20
0.0
  9
$LIMMAX
 10
12.0
 20
9.0
  9
$ORTHOMODE
 70
     0
  9
$REGENMODE
 70
     1
  9
$FILLMODE
 70
     1
  9
$QTEXTMODE
 70
     0
  9
$MIRRTEXT
 70
     1
  9
$LTSCALE
 40
1.0
  9
$ATTMODE
 70
     1
  9
$TEXTSIZE
 40
0.2
  9
$TRACEWID
 40
0.05
  9
$TEXTSTYLE
  7
Standard
  9
$CLAYER
  8
0
  9
$CELTYPE
  6
ByLayer
  9
$CECOLOR
 62
   256
  9
$CELTSCALE
 40
1.0
  9
$DISPSILH
 70
     0
  9
$DIMSCALE
 40
1.0
  9
$DIMASZ
 40
0.18
  9
$DIMEXO
 40
0.0625
  9
$DIMDLI
 40
0.38
  9
$DIMRND
 40
0.0
  9
$DIMDLE
 40
0.0
  9
$DIMEXE
 40
0.18
  9
$DIMTP
 40
0.0
  9
$DIMTM
 40
0.0
  9
$DIMTXT
 40
0.18
  9
$DIMCEN
 40
0.09
  9
$DIMTSZ
 40
0.0
  9
$DIMTOL
 70
     0
  9
$DIMLIM
 70
     0
  9
$DIMTIH
 70
     1
  9
$DIMTOH
 70
     1
  9
$DIMSE1
 70
     0
  9
$DIMSE2
 70
     0
  9
$DIMTAD
 70
     0
  9
$DIMZIN
 70
     0
  9
$DIMBLK
  1

  9
$DIMASO
 70
     1
  9
$DIMSHO
 70
     1
  9
$DIMPOST
  1

  9
$DIMAPOST
  1

  9
$DIMALT
 70
     0
  9
$DIMALTD
 70
     2
  9
$DIMALTF
 40
25.4
  9
$DIMLFAC
 40
1.0
  9
$DIMTOFL
 70
     0
  9
$DIMTVP
 40
0.0
  9
$DIMTIX
 70
     0
  9
$DIMSOXD
 70
     0
  9
$DIMSAH
 70
     0
  9
$DIMBLK1
  1

  9
$DIMBLK2
  1

  9
$DIMSTYLE
  2
Standard
  9
$DIMCLRD
 70
     0
  9
$DIMCLRE
 70
     0
  9
$DIMCLRT
 70
     0
  9
$DIMTFAC
 40
1.0
  9
$DIMGAP
 40
0.09
  9
$DIMJUST
 70
     0
  9
$DIMSD1
 70
     0
  9
$DIMSD2
 70
     0
  9
$DIMTOLJ
 70
     1
  9
$DIMTZIN
 70
     0
  9
$DIMALTZ
 70
     0
  9
$DIMALTTZ
 70
     0
  9
$DIMUPT
 70
     0
  9
$DIMDEC
 70
     4
  9
$DIMTDEC
 70
     4
  9
$DIMALTU
 70
     2
  9
$DIMALTTD
 70
     2
  9
$DIMTXSTY
  7
Standard
  9
$DIMAUNIT
 70
     0
  9
$DIMADEC
 70
     0
  9
$DIMALTRND
 40
0.0
  9
$DIMAZIN
 70
     0
  9
$DIMDSEP
 70
    46
  9
$DIMATFIT
 70
     3
  9
$DIMFRAC
 70
     0
  9
$DIMLDRBLK
  1

  9
$DIMLUNIT
 70
     2
  9
$DIMLWD
 70
    -2
  9
$DIMLWE
 70
    -2
  9
$DIMTMOVE
 70
     0
  9
$LUNITS
 70
     2
  9
$LUPREC
 70
     4
  9
$SKETCHINC
 40
0.1
  9
$FILLETRAD
 40
0.5
  9
$AUNITS
 70
     0
  9
$AUPREC
 70
     0
  9
$MENU
  1
.
  9
$ELEVATION
 40
0.0
  9
$PELEVATION
 40
0.0
  9
$THICKNESS
 40
0.0
  9
$LIMCHECK
 70
     0
  9
$CHAMFERA
 40
0.5
  9
$CHAMFERB
 40
0.5
  9
$CHAMFERC
 40
1.0
  9
$CHAMFERD
 40
0.0
  9
$SKPOLY
 70
     0
  9
$TDCREATE
 40
2456997.601125833
  9
$TDUCREATE
 40
2456997.559459167
  9
$TDUPDATE
 40
2456997.601126018
  9
$TDUUPDATE
 40
2456997.559459352
  9
$TDINDWG
 40
0.0000000116
  9
$TDUSRTIMER
 40
0.0000000116
  9
$USRTIMER
 70
     1
  9
$ANGBASE
 50
0.0
  9
$ANGDIR
 70
     0
  9
$PDMODE
 70
     0
  9
$PDSIZE
 40
0.0
  9
$PLINEWID
 40
0.0
  9
$SPLFRAME
 70
     0
  9
$SPLINETYPE
 70
     6
  9
$SPLINESEGS
 70
     8
  9
$HANDSEED
  5
343
  9
$SURFTAB1
 70
     6
  9
$SURFTAB2
 70
     6
  9
$SURFTYPE
 70
     6
  9
$SURFU
 70
     6
  9
$SURFV
 70
     6
  9
$UCSBASE
  2

  9
$UCSNAME
  2

  9
$UCSORG
 10
0.0
 20
0.0
 30
0.0
  9
$UCSXDIR
 10
1.0
 20
0.0
 30
0.0
  9
$UCSYDIR
 10
0.0
 20
1.0
 30
0.0
  9
$UCSORTHOREF
  2

  9
$UCSORTHOVIEW
 70
     0
  9
$UCSORGTOP
 10
0.0
 20
0.0
 30
0.0
  9
$UCSORGBOTTOM
 10
0.0
 20
0.0
 30
0.0
  9
$UCSORGLEFT
 10
0.0
 20
0.0
 30
0.0
  9
$UCSORGRIGHT
 10
0.0
 20
0.0
 30
0.0
  9
$UCSORGFRONT
 10
0.0
 20
0.0
 30
0.0
  9
$UCSORGBACK
 10
0.0
 20
0.0
 30
0.0
  9
$PUCSBASE
  2

  9
$PUCSNAME
  2

  9
$PUCSORG
 10
0.0
 20
0.0
 30
0.0
  9
$PUCSXDIR
 10
1.0
 20
0.0
 30
0.0
  9
$PUCSYDIR
 10
0.0
 20
1.0
 30
0.0
  9
$PUCSORTHOREF
  2

  9
$PUCSORTHOVIEW
 70
     0
  9
$PUCSORGTOP
 10
0.0
 20
0.0
 30
0.0
  9
$PUCSORGBOTTOM
 10
0.0
 20
0.0
 30
0.0
  9
$PUCSORGLEFT
 10
0.0
 20
0.0
 30
0.0
  9
$PUCSORGRIGHT
 10
0.0
 20
0.0
 30
0.0
  9
$PUCSORGFRONT
 10
0.0
 20
0.0
 30
0.0
  9
$PUCSORGBACK
 10
0.0
 20
0.0
 30
0.0
  9
$USERI1
 70
     0
  9
$USERI2
 70
     0
  9
$USERI3
 70
     0
  9
$USERI4
 70
     0
  9
$USERI5
 70
     0
  9
$USERR1
 40
18.1
  9
$USERR2
 40
0.0
  9
$USERR3
 40
0.0
  9
$USERR4
 40
0.0
  9
$USERR5
 40
0.0
  9
$WORLDVIEW
 70
     1
  9
$SHADEDGE
 70
     3
  9
$SHADEDIF
 70
    70
  9
$TILEMODE
 70
     1
  9
$MAXACTVP
 70
    64
  9
$PINSBASE
 10
0.0
 20
0.0
 30
0.0
  9
$PLIMCHECK
 70
     0
  9
$PEXTMIN
 10
1.00000000000000E+20
 20
1.00000000000000E+20
 30
1.00000000000000E+20
  9
$PEXTMAX
 10
-1.00000000000000E+20
 20
-1.00000000000000E+20
 30
-1.00000000000000E+20
  9
$PLIMMIN
 10
0.0
 20
0.0
  9
$PLIMMAX
 10
12.0
 20
9.0
  9
$UNITMODE
 70
     0
  9
$VISRETAIN
 70
     1
  9
$PLINEGEN
 70
     0
  9
$PSLTSCALE
 70
     1
  9
$TREEDEPTH
 70
  3020
  9
$CMLSTYLE
  2
Standard
  9
$CMLJUST
 70
     0
  9
$CMLSCALE
 40
1.0
  9
$PROXYGRAPHICS
 70
     1
  9
$MEASUREMENT
 70
     1
  9
$CELWEIGHT
370
    -1
  9
$ENDCAPS
280
     0
  9
$JOINSTYLE
280
     0
  9
$LWDISPLAY
290
     0
  9
$INSUNITS
 70
     4
  9
$HYPERLINKBASE
  1

  9
$STYLESHEET
  1

  9
$XEDIT
290
     1
  9
$CEPSNTYPE
380
     0
  9
$PSTYLEMODE
290
     1
  9
$FINGERPRINTGUID
  2
{074EF7E0-8FA8-491E-8B62-1C62F69EAA53}
  9
$VERSIONGUID
  2
{FAEB1C32-E019-11D5-929B-00C0DF256EC4}
  9
$EXTNAMES
290
     1
  9
$PSVPSCALE
 40
0.0
  9
$OLESTARTUP
290
     0
  0
ENDSEC
  0
SECTION
  2
CLASSES
  0
CLASS
  1
ACDBDICTIONARYWDFLT
  2
AcDbDictionaryWithDefault
  3
ObjectDBX Classes
 90
        0
280
     0
281
     0
  0
CLASS
  1
VISUALSTYLE
  2
AcDbVisualStyle
  3
ObjectDBX Classes
 90
     4095
280
     0
281
     0
  0
CLASS
  1
MATERIAL
  2
AcDbMaterial
  3
ObjectDBX Classes
 90
     1153
280
     0
281
     0
  0
CLASS
  1
DICTIONARYVAR
  2
AcDbDictionaryVar
  3
ObjectDBX Classes
 90
        0
280
     0
281
     0
  0
CLASS
  1
ACDBPLACEHOLDER
  2
AcDbPlaceHolder
  3
ObjectDBX Classes
 90
        0
280
     0
281
     0
  0
CLASS
  1
LAYOUT
  2
AcDbLayout
  3
ObjectDBX Classes
 90
        0
280
     0
281
     0
  0
ENDSEC
  0
SECTION
  2
TABLES
  0
TABLE
  2
VPORT
  5
8
330
0
100
AcDbSymbolTable
 70
     1
  0
VPORT
  5
29
330
8
100
AcDbSymbolTableRecord
100
AcDbViewportTableRecord
  2
*Active
 70
     0
 10
0.0
 20
0.0
 11
1.0
 21
1.0
 12
105.0000000000001
 22
148.5000000000001
 13
0.0
 23
0.0
 14
0.5
 24
0.5
 15
0.5
 25
0.5
 16
0.0
 26
0.0
 36
1.0
 17
0.0
 27
0.0
 37
0.0
 40
326.7000000000002
 41
1.60267857142857
 42
50.0
 43
0.0
 44
0.0
 50
0.0
 51
0.0
 71
     0
 72
   100
 73
     1
 74
     3
 75
     0
 76
     0
 77
     0
 78
     0
281
     0
 65
     1
110
0.0
120
0.0
130
0.0
111
1.0
121
0.0
131
0.0
112
0.0
122
1.0
132
0.0
 79
     0
146
0.0
  0
ENDTAB
  0
TABLE
  2
LTYPE
  5
5
330
0
100
AcDbSymbolTable
 70
     8
  0
LTYPE
  5
14
330
5
100
AcDbSymbolTableRecord
100
AcDbLinetypeTableRecord
  2
ByBlock
 70
     0
  3

 72
    65
 73
     0
 40
0.0
  0
LTYPE
  5
15
330
5
100
AcDbSymbolTableRecord
100
AcDbLinetypeTableRecord
  2
ByLayer
 70
     0
  3

 72
    65
 73
     0
 40
0.0
  0
LTYPE
  5
16
330
5
100
AcDbSymbolTableRecord
100
AcDbLinetypeTableRecord
  2
Continuous
 70
     0
  3
Solid line
 72
    65
 73
     0
 40
0.0
  0
LTYPE
  5
3F
330
5
100
AcDbSymbolTableRecord
100
AcDbLinetypeTableRecord
  2
DASHED
 70
     0
  3
Dashed
 72
    65
 73
     2
 40
15.0
 49
7.0
 74
     0
 49
-8.0
 74
     0
  0
LTYPE
  5
40
330
5
100
AcDbSymbolTableRecord
100
AcDbLinetypeTableRecord
  2
DOTTED
 70
     0
  3
Dotted
 72
    65
 73
     2
 40
1.0
 49
0.0
 74
     0
 49
-1.0
 74
     0
  0
LTYPE
  5
41
330
5
100
AcDbSymbolTableRecord
100
AcDbLinetypeTableRecord
  2
DOT_CENTER
 70
     0
  3
Dot_Center
 72
    65
 73
     4
 40
14.0
 49
12.0
 74
     0
 49
-1.0
 74
     0
 49
0.0
 74
     0
 49
-1.0
 74
     0
  0
LTYPE
  5
42
330
5
100
AcDbSymbolTableRecord
100
AcDbLinetypeTableRecord
  2
LONG_DASHED
 70
     0
  3
Long_Dashed
 72
    65
 73
     2
 40
15.0
 49
10.0
 74
     0
 49
-5.0
 74
     0
  0
LTYPE
  5
43
330
5
100
AcDbSymbolTableRecord
100
AcDbLinetypeTableRecord
  2
DASH_CENTER
 70
     0
  3
Dash_Center
 72
    65
 73
     4
 40
14.0
 49
11.0
 74
     0
 49
-1.0
 74
     0
 49
1.0
 74
     0
 49
-1.0
 74
     0
  0
LTYPE
  5
44
330
5
100
AcDbSymbolTableRecord
100
AcDbLinetypeTableRecord
  2
PHANTOM
 70
     0
  3
Phantom
 72
    65
 73
     6
 40
13.0
 49
10.0
 74
     0
 49
-1.0
 74
     0
 49
0.0
 74
     0
 49
-1.0
 74
     0
 49
0.0
 74
     0
 49
-1.0
 74
     0
  0
LTYPE
  5
45
330
5
100
AcDbSymbolTableRecord
100
AcDbLinetypeTableRecord
  2
CENTER_DASH_DASH
 70
     0
  3
Center_Dash_Dash
 72
    65
 73
     6
 40
14.0
 49
9.0
 74
     0
 49
-1.0
 74
     0
 49
1.0
 74
     0
 49
-1.0
 74
     0
 49
1.0
 74
     0
 49
-1.0
 74
     0
  0
ENDTAB
  0
TABLE
  2
LAYER
  5
2
330
0
100
AcDbSymbolTable
 70
     2
  0
LAYER
  5
10
330
2
100
AcDbSymbolTableRecord
100
AcDbLayerTableRecord
  2
0
 70
     0
 62
     7
  6
Continuous
370
    -3
390
F
  0
LAYER
  5
46
330
2
100
AcDbSymbolTableRecord
100
AcDbLayerTableRecord
  2
1
 70
     0
 62
     7
  6
Continuous
370
    -3
390
F
  0
ENDTAB
  0
TABLE
  2
STYLE
  5
3
330
0
100
AcDbSymbolTable
 70
     4
  0
STYLE
  5
11
330
3
100
AcDbSymbolTableRecord
100
AcDbTextStyleTableRecord
  2
Standard
 70
     0
 40
0.0
 41
1.0
 50
0.0
 71
     0
 42
0.2
  3
txt
  4

  0
STYLE
  5
9B
330
3
100
AcDbSymbolTableRecord
100
AcDbTextStyleTableRecord
  2
CONVERTER_11
 70
     0
 40
0.0
 41
1.38
 50
0.0
 71
     0
 42
0.2
  3
ARIAL.TTF
  4

  0
STYLE
  5
9D
330
3
100
AcDbSymbolTableRecord
100
AcDbTextStyleTableRecord
  2
CONVERTER_12
 70
     0
 40
0.0
 41
1.2
 50
0.0
 71
     0
 42
0.2
  3
ARIAL.TTF
  4

  0
STYLE
  5
2CE
330
3
100
AcDbSymbolTableRecord
100
AcDbTextStyleTableRecord
  2
CONVERTER_13
 70
     0
 40
0.0
 41
0.95
 50
0.0
 71
     0
 42
0.2
  3
simplex.shx
  4

  0
ENDTAB
  0
TABLE
  2
VIEW
  5
6
330
0
100
AcDbSymbolTable
 70
     0
  0
ENDTAB
  0
TABLE
  2
UCS
  5
7
330
0
100
AcDbSymbolTable
 70
     0
  0
ENDTAB
  0
TABLE
  2
APPID
  5
9
330
0
100
AcDbSymbolTable
 70
     1
  0
APPID
  5
12
330
9
100
AcDbSymbolTableRecord
100
AcDbRegAppTableRecord
  2
ACAD
 70
     0
  0
ENDTAB
  0
TABLE
  2
DIMSTYLE
  5
A
330
0
100
AcDbSymbolTable
 70
     8
100
AcDbDimStyleTable
  0
DIMSTYLE
105
27
330
A
100
AcDbSymbolTableRecord
100
AcDbDimStyleTableRecord
  2
Standard
 70
     0
178
     0
340
11
  0
DIMSTYLE
105
2D2
102
{ACAD_REACTORS
330
2D3
102
}
330
A
100
AcDbSymbolTableRecord
100
AcDbDimStyleTableRecord
  2
ME10_DIM_10
 70
     0
 41
3.0
 42
0.5
 44
1.0
 73
     0
 74
     0
 77
     1
 78
     8
140
3.0
147
2.0
172
     1
173
     1
174
     1
175
     1
176
     2
177
     2
271
     2
178
     4
271
     2
340
2CE
  0
DIMSTYLE
105
2DD
102
{ACAD_REACTORS
330
2DE
102
}
330
A
100
AcDbSymbolTableRecord
100
AcDbDimStyleTableRecord
  2
ME10_DIM_11
 70
     0
 41
3.0
 42
0.5
 44
1.0
 73
     0
 74
     0
 77
     1
 78
     8
140
3.0
147
2.0
172
     1
173
     1
174
     1
175
     1
176
     2
177
     2
271
     2
178
     4
271
     2
340
2CE
  0
DIMSTYLE
105
2E8
102
{ACAD_REACTORS
330
2E9
102
}
330
A
100
AcDbSymbolTableRecord
100
AcDbDimStyleTableRecord
  2
ME10_DIM_12
 70
     0
 41
3.0
 42
0.5
 44
1.0
 73
     0
 74
     0
 77
     1
 78
     8
140
3.0
147
2.0
172
     1
173
     1
174
     1
175
     1
176
     2
177
     2
271
     2
178
     4
271
     2
340
2CE
  0
DIMSTYLE
105
2F3
102
{ACAD_REACTORS
330
2F4
102
}
330
A
100
AcDbSymbolTableRecord
100
AcDbDimStyleTableRecord
  2
ME10_DIM_13
 70
     0
 41
3.0
 42
0.5
 44
1.0
 73
     0
 74
     0
 77
     1
 78
     8
140
3.0
147
2.0
172
     1
173
     1
174
     1
175
     1
176
     2
177
     2
271
     2
178
     4
271
     2
340
2CE
  0
DIMSTYLE
105
2FE
102
{ACAD_REACTORS
330
2FF
102
}
330
A
100
AcDbSymbolTableRecord
100
AcDbDimStyleTableRecord
  2
ME10_DIM_14
 70
     0
 41
3.0
 42
0.5
 44
1.0
 73
     0
 74
     0
 77
     1
 78
     8
140
3.0
147
2.0
172
     1
173
     1
174
     1
175
     1
176
     2
177
     2
271
     2
178
     4
271
     2
340
2CE
  0
DIMSTYLE
105
309
102
{ACAD_REACTORS
330
30A
102
}
330
A
100
AcDbSymbolTableRecord
100
AcDbDimStyleTableRecord
  2
ME10_DIM_15
 70
     0
 41
3.0
 42
0.5
 44
1.0
 73
     0
 74
     0
 77
     1
 78
     8
140
3.0
147
2.0
172
     1
173
     1
174
     1
175
     1
176
     2
177
     2
271
     2
178
     4
271
     2
340
2CE
  0
DIMSTYLE
105
316
102
{ACAD_REACTORS
330
317
102
}
330
A
100
AcDbSymbolTableRecord
100
AcDbDimStyleTableRecord
  2
ME10_DIM_16
 70
     0
 41
3.0
 42
0.5
 44
1.0
 73
     0
 74
     0
 77
     1
 78
     8
140
3.0
147
2.0
172
     1
173
     1
174
     1
175
     1
176
     2
177
     2
271
     2
178
     4
271
     2
340
2CE
  0
ENDTAB
  0
TABLE
  2
BLOCK_RECORD
  5
1
330
0
100
AcDbSymbolTable
 70
    10
  0
BLOCK_RECORD
  5
1F
330
1
100
AcDbSymbolTableRecord
100
AcDbBlockTableRecord
  2
*Model_Space
340
22
  0
BLOCK_RECORD
  5
1B
330
1
100
AcDbSymbolTableRecord
100
AcDbBlockTableRecord
  2
*Paper_Space
340
1E
  0
BLOCK_RECORD
  5
23
330
1
100
AcDbSymbolTableRecord
100
AcDbBlockTableRecord
  2
*Paper_Space0
340
26
  0
BLOCK_RECORD
  5
47
330
1
100
AcDbSymbolTableRecord
100
AcDbBlockTableRecord
  2
_formato_A4
340
0
102
{BLKREFS
331
4B
102
}
  0
BLOCK_RECORD
  5
4A
330
1
100
AcDbSymbolTableRecord
100
AcDbBlockTableRecord
  2
A4
340
0
102
{BLKREFS
331
4E
102
}
  0
BLOCK_RECORD
  5
2C8
330
1
100
AcDbSymbolTableRecord
100
AcDbBlockTableRecord
  2
*D3
340
0
  0
BLOCK_RECORD
  5
2D4
330
1
100
AcDbSymbolTableRecord
100
AcDbBlockTableRecord
  2
*D4
340
0
  0
BLOCK_RECORD
  5
2DF
330
1
100
AcDbSymbolTableRecord
100
AcDbBlockTableRecord
  2
*D5
340
0
  0
BLOCK_RECORD
  5
2EA
330
1
100
AcDbSymbolTableRecord
100
AcDbBlockTableRecord
  2
*D6
340
0
  0
BLOCK_RECORD
  5
2F5
330
1
100
AcDbSymbolTableRecord
100
AcDbBlockTableRecord
  2
*D7
340
0
  0
BLOCK_RECORD
  5
300
330
1
100
AcDbSymbolTableRecord
100
AcDbBlockTableRecord
  2
*D8
340
0
  0
BLOCK_RECORD
  5
30B
330
1
100
AcDbSymbolTableRecord
100
AcDbBlockTableRecord
  2
*D9
340
0
  0
ENDTAB
  0
ENDSEC
  0
SECTION
  2
BLOCKS
  0
BLOCK
  5
20
330
1F
100
AcDbEntity
  8
0
100
AcDbBlockBegin
  2
*Model_Space
 70
     0
 10
0.0
 20
0.0
 30
0.0
  3
*Model_Space
  1

  0
ENDBLK
  5
21
330
1F
100
AcDbEntity
  8
0
100
AcDbBlockEnd
  0
BLOCK
  5
1C
330
1B
100
AcDbEntity
 67
     1
  8
0
100
AcDbBlockBegin
  2
*Paper_Space
 70
     0
 10
0.0
 20
0.0
 30
0.0
  3
*Paper_Space
  1

  0
ENDBLK
  5
1D
330
1B
100
AcDbEntity
 67
     1
  8
0
100
AcDbBlockEnd
  0
BLOCK
  5
24
330
23
100
AcDbEntity
  8
0
100
AcDbBlockBegin
  2
*Paper_Space0
 70
     0
 10
0.0
 20
0.0
 30
0.0
  3
*Paper_Space0
  1

  0
ENDBLK
  5
25
330
23
100
AcDbEntity
  8
0
100
AcDbBlockEnd
  0
BLOCK
  5
48
330
47
100
AcDbEntity
  8
0
100
AcDbBlockBegin
  2
_formato_A4
 70
     0
 10
210.0000000000002
 20
0.0
 30
0.0
  3
_formato_A4
  1

  0
LINE
  5
4F
330
47
100
AcDbEntity
  8
1
  6
Continuous
 62
     7
100
AcDbLine
 10
21.00000000000023
 20
14.99999999999989
 30
0.0
 11
51.00000000000023
 21
14.99999999999989
 31
0.0
  0
LINE
  5
50
330
47
100
AcDbEntity
  8
1
  6
Continuous
 62
     7
100
AcDbLine
 10
21.00000000000023
 20
20.0
 30
0.0
 11
21.00000000000023
 21
4.99999999999989
 31
0.0
  0
LINE
  5
51
330
47
100
AcDbEntity
  8
1
  6
Continuous
 62
     7
100
AcDbLine
 10
161.0000000000002
 20
20.0
 30
0.0
 11
161.0000000000002
 21
5.0
 31
0.0
  0
LINE
  5
52
330
47
100
AcDbEntity
  8
1
  6
Continuous
 62
     7
100
AcDbLine
 10
178.3526013774856
 20
20.0
 30
0.0
 11
178.3526013774856
 21
5.0
 31
0.0
  0
LINE
  5
53
330
47
100
AcDbEntity
  8
1
  6
Continuous
 62
     7
100
AcDbLine
 10
51.00000000000023
 20
20.0
 30
0.0
 11
51.00000000000023
 21
5.0
 31
0.0
  0
LINE
  5
54
330
47
100
AcDbEntity
  8
1
  6
Continuous
 62
     7
100
AcDbLine
 10
21.00000000000023
 20
9.99999999999989
 30
0.0
 11
51.00000000000023
 21
9.99999999999989
 31
0.0
  0
LINE
  5
55
330
47
100
AcDbEntity
  8
1
  6
Continuous
 62
     7
100
AcDbLine
 10
0.0
 20
148.4999999999998
 30
0.0
 11
15.0
 21
148.4999999999998
 31
0.0
  0
LINE
  5
56
330
47
100
AcDbEntity
  8
1
  6
Continuous
 62
     7
100
AcDbLine
 10
210.0000000000002
 20
0.0
 30
0.0
 11
210.0000000000002
 21
297.0000000000001
 31
0.0
  0
LINE
  5
57
330
47
100
AcDbEntity
  8
1
  6
Continuous
 62
     7
100
AcDbLine
 10
0.0
 20
0.0
 30
0.0
 11
210.0000000000002
 21
0.0
 31
0.0
  0
LINE
  5
58
330
47
100
AcDbEntity
  8
1
  6
Continuous
 62
     7
100
AcDbLine
 10
0.0
 20
297.0000000000001
 30
0.0
 11
0.0
 21
0.0
 31
0.0
  0
LINE
  5
59
330
47
100
AcDbEntity
  8
1
  6
Continuous
 62
     7
100
AcDbLine
 10
210.0000000000002
 20
297.0000000000001
 30
0.0
 11
0.0
 21
297.0000000000001
 31
0.0
  0
LINE
  5
5A
330
47
100
AcDbEntity
  8
1
  6
Continuous
 62
     7
100
AcDbLine
 10
205.0000000000002
 20
4.99999999999989
 30
0.0
 11
205.0000000000002
 21
292.0000000000001
 31
0.0
  0
LINE
  5
5B
330
47
100
AcDbEntity
  8
1
  6
Continuous
 62
     7
100
AcDbLine
 10
205.0000000000002
 20
292.0000000000001
 30
0.0
 11
21.00000000000023
 21
292.0000000000001
 31
0.0
  0
LINE
  5
5C
330
47
100
AcDbEntity
  8
1
  6
Continuous
 62
     7
100
AcDbLine
 10
21.00000000000023
 20
292.0000000000001
 30
0.0
 11
21.00000000000023
 21
4.99999999999989
 31
0.0
  0
LINE
  5
5D
102
{ACAD_REACTORS
330
A9
102
}
330
47
100
AcDbEntity
  8
1
  6
Continuous
 62
     7
100
AcDbLine
 10
194.0096340220764
 20
10.07749983983263
 30
0.0
 11
194.0096340220764
 21
14.92250016016737
 31
0.0
  0
LINE
  5
5E
102
{ACAD_REACTORS
330
A6
102
}
330
47
100
AcDbEntity
  8
1
  6
Continuous
 62
     7
100
AcDbLine
 10
192.6763006887429
 20
12.5
 30
0.0
 11
192.6763006887429
 21
14.23205080756884
 31
0.0
  0
LINE
  5
5F
102
{ACAD_REACTORS
330
A6
102
}
330
47
100
AcDbEntity
  8
1
  6
Continuous
 62
     7
100
AcDbLine
 10
192.6763006887429
 20
14.23205080756884
 30
0.0
 11
191.8206382560402
 21
12.75
 31
0.0
  0
LINE
  5
60
102
{ACAD_REACTORS
330
A6
102
}
330
47
100
AcDbEntity
  8
1
  6
Continuous
 62
     7
100
AcDbLine
 10
191.5319631214454
 20
12.75
 30
0.0
 11
190.6763006887429
 21
14.23205080756884
 31
0.0
  0
LINE
  5
61
102
{ACAD_REACTORS
330
A6
102
}
330
47
100
AcDbEntity
  8
1
  6
Continuous
 62
     7
100
AcDbLine
 10
190.6763006887429
 20
14.23205080756884
 30
0.0
 11
190.6763006887429
 21
12.5
 31
0.0
  0
LINE
  5
62
330
47
100
AcDbEntity
  8
1
  6
Continuous
 62
     7
100
AcDbLine
 10
183.2598654136014
 20
12.64436426434133
 30
0.0
 11
191.6763006887429
 21
17.5
 31
0.0
  0
LINE
  5
63
330
47
100
AcDbEntity
  8
1
  6
Continuous
 62
     7
100
AcDbLine
 10
191.6763006887429
 20
17.5
 30
0.0
 11
200.0927359638845
 21
12.64436426434133
 31
0.0
  0
LINE
  5
64
330
47
100
AcDbEntity
  8
1
  6
Continuous
 62
     7
100
AcDbLine
 10
200.0927359638845
 20
12.35563573565855
 30
0.0
 11
191.6763006887429
 21
7.5
 31
0.0
  0
LINE
  5
65
330
47
100
AcDbEntity
  8
1
  6
Continuous
 62
     7
100
AcDbLine
 10
191.6763006887429
 20
7.5
 30
0.0
 11
183.2598654136014
 21
12.35563573565855
 31
0.0
  0
LINE
  5
66
102
{ACAD_REACTORS
330
A6
102
}
330
47
100
AcDbEntity
  8
1
  6
Continuous
 62
     7
100
AcDbLine
 10
190.0096340220762
 20
12.5
 30
0.0
 11
190.0096340220762
 21
15.73121731203457
 31
0.0
  0
LINE
  5
67
102
{ACAD_REACTORS
330
A6
102
}
330
47
100
AcDbEntity
  8
1
  6
Continuous
 62
     7
100
AcDbLine
 10
190.5040677056995
 20
15.86370041827229
 30
0.0
 11
191.6763006887429
 21
13.83333333333326
 31
0.0
  0
LINE
  5
68
102
{ACAD_REACTORS
330
A6
102
}
330
47
100
AcDbEntity
  8
1
  6
Continuous
 62
     7
100
AcDbLine
 10
190.0096340220762
 20
12.5
 30
0.0
 11
190.0096340220762
 21
10.84758507263291
 31
0.0
  0
LINE
  5
69
102
{ACAD_REACTORS
330
A6
102
}
330
47
100
AcDbEntity
  8
1
  6
Continuous
 62
     7
100
AcDbLine
 10
190.6763006887429
 20
10.84758507263291
 30
0.0
 11
190.6763006887429
 21
12.5
 31
0.0
  0
LINE
  5
6A
102
{ACAD_REACTORS
330
A6
102
}
330
47
100
AcDbEntity
  8
1
  6
Continuous
 62
     7
100
AcDbLine
 10
192.6763006887429
 20
12.5
 30
0.0
 11
192.6763006887429
 21
9.3082690706018
 31
0.0
  0
LINE
  5
6B
102
{ACAD_REACTORS
330
A6
102
}
330
47
100
AcDbEntity
  8
1
  6
Continuous
 62
     7
100
AcDbLine
 10
193.3429673554094
 20
9.3082690706018
 30
0.0
 11
193.3429673554094
 21
15.73121731203457
 31
0.0
  0
LINE
  5
6C
102
{ACAD_REACTORS
330
A6
102
}
330
47
100
AcDbEntity
  8
1
  6
Continuous
 62
     7
100
AcDbLine
 10
192.8485336717863
 20
15.86370041827229
 30
0.0
 11
191.6763006887429
 21
13.83333333333326
 31
0.0
  0
LINE
  5
6D
102
{ACAD_REACTORS
330
A7
102
}
330
47
100
AcDbEntity
  8
1
  6
Continuous
 62
     7
100
AcDbLine
 10
188.6763006887429
 20
10.27002114803258
 30
0.0
 11
188.6763006887429
 21
14.92250016016737
 31
0.0
  0
LINE
  5
6E
102
{ACAD_REACTORS
330
A7
102
}
330
47
100
AcDbEntity
  8
1
  6
Continuous
 62
     7
100
AcDbLine
 10
189.3429673554094
 20
14.92250016016737
 30
0.0
 11
189.3429673554094
 21
10.2700211480327
 31
0.0
  0
LINE
  5
6F
102
{ACAD_REACTORS
330
A7
102
}
330
47
100
AcDbEntity
  8
1
  6
Continuous
 62
     7
100
AcDbLine
 10
189.3429673554094
 20
10.2700211480327
 30
0.0
 11
191.5095415065728
 21
9.0200745223616
 31
0.0
  0
LINE
  5
70
102
{ACAD_REACTORS
330
A7
102
}
330
47
100
AcDbEntity
  8
1
  6
Continuous
 62
     7
100
AcDbLine
 10
191.1763932042463
 20
8.44261746499581
 30
0.0
 11
189.0098190530832
 21
9.69256409066691
 31
0.0
  0
LINE
  5
71
102
{ACAD_REACTORS
330
A8
102
}
330
47
100
AcDbEntity
  8
1
  6
Continuous
 62
     7
100
AcDbLine
 10
188.0096340220762
 20
14.15326939093666
 30
0.0
 11
188.0096340220762
 21
11.0392519172633
 31
0.0
  0
LINE
  5
72
102
{ACAD_REACTORS
330
A8
102
}
330
47
100
AcDbEntity
  8
1
  6
Continuous
 62
     7
100
AcDbLine
 10
188.0096340220762
 20
11.0392519172633
 30
0.0
 11
188.0096340220762
 21
10.84673060906323
 31
0.0
  0
LINE
  5
73
102
{ACAD_REACTORS
330
A8
102
}
330
47
100
AcDbEntity
  8
1
  6
Continuous
 62
     7
100
AcDbLine
 10
187.3429673554094
 20
10.84673060906323
 30
0.0
 11
187.3429673554094
 21
14.15326939093666
 31
0.0
  0
LINE
  5
74
102
{ACAD_REACTORS
330
A9
102
}
330
47
100
AcDbEntity
  8
1
  6
Continuous
 62
     7
100
AcDbLine
 10
194.5095415065728
 20
15.21122868885027
 30
0.0
 11
195.842874839906
 21
14.44199791961944
 31
0.0
  0
LINE
  5
75
102
{ACAD_REACTORS
330
A9
102
}
330
47
100
AcDbEntity
  8
1
  6
Continuous
 62
     7
100
AcDbLine
 10
195.5097265375798
 20
13.86454086225376
 30
0.0
 11
194.6763006887429
 21
14.34536346735195
 31
0.0
  0
LINE
  5
76
102
{ACAD_REACTORS
330
A9
102
}
330
47
100
AcDbEntity
  8
1
  6
Continuous
 62
     7
100
AcDbLine
 10
194.6763006887429
 20
14.34536346735195
 30
0.0
 11
194.6763006887429
 21
12.83333333333326
 31
0.0
  0
LINE
  5
77
102
{ACAD_REACTORS
330
A9
102
}
330
47
100
AcDbEntity
  8
1
  6
Continuous
 62
     7
100
AcDbLine
 10
194.6763006887429
 20
12.83333333333326
 30
0.0
 11
195.6763006887429
 21
12.83333333333326
 31
0.0
  0
LINE
  5
78
102
{ACAD_REACTORS
330
A9
102
}
330
47
100
AcDbEntity
  8
1
  6
Continuous
 62
     7
100
AcDbLine
 10
195.6763006887429
 20
12.16666666666663
 30
0.0
 11
194.6763006887429
 21
12.16666666666663
 31
0.0
  0
LINE
  5
79
102
{ACAD_REACTORS
330
A9
102
}
330
47
100
AcDbEntity
  8
1
  6
Continuous
 62
     7
100
AcDbLine
 10
194.6763006887429
 20
12.16666666666663
 30
0.0
 11
194.6763006887429
 21
10.65463653264794
 31
0.0
  0
LINE
  5
7A
102
{ACAD_REACTORS
330
A9
102
}
330
47
100
AcDbEntity
  8
1
  6
Continuous
 62
     7
100
AcDbLine
 10
194.6763006887429
 20
10.65463653264794
 30
0.0
 11
195.5097265375798
 21
11.13545913774624
 31
0.0
  0
LINE
  5
7B
102
{ACAD_REACTORS
330
A9
102
}
330
47
100
AcDbEntity
  8
1
  6
Continuous
 62
     7
100
AcDbLine
 10
195.842874839906
 20
10.55800208038033
 30
0.0
 11
194.5095415065728
 21
9.78877131114973
 31
0.0
  0
LINE
  5
7C
330
47
100
AcDbEntity
  8
1
  6
Continuous
 62
     7
100
AcDbLine
 10
21.00000000000023
 20
25.0
 30
0.0
 11
205.0000000000002
 21
25.0
 31
0.0
  0
LINE
  5
7D
330
47
100
AcDbEntity
  8
1
  6
Continuous
 62
     7
100
AcDbLine
 10
28.00000000000023
 20
20.0
 30
0.0
 11
28.00000000000023
 21
25.0
 31
0.0
  0
LINE
  5
7E
330
47
100
AcDbEntity
  8
1
  6
Continuous
 62
     7
100
AcDbLine
 10
46.00000000000046
 20
20.0
 30
0.0
 11
46.00000000000046
 21
25.0
 31
0.0
  0
LINE
  5
7F
330
47
100
AcDbEntity
  8
1
  6
Continuous
 62
     7
100
AcDbLine
 10
21.00000000000023
 20
30.0
 30
0.0
 11
205.0000000000002
 21
30.0
 31
0.0
  0
LINE
  5
80
330
47
100
AcDbEntity
  8
1
  6
Continuous
 62
     7
100
AcDbLine
 10
28.00000000000023
 20
25.0
 30
0.0
 11
28.00000000000023
 21
30.0
 31
0.0
  0
LINE
  5
81
330
47
100
AcDbEntity
  8
1
  6
Continuous
 62
     7
100
AcDbLine
 10
46.00000000000046
 20
25.0
 30
0.0
 11
46.00000000000046
 21
30.0
 31
0.0
  0
LINE
  5
82
330
47
100
AcDbEntity
  8
1
  6
Continuous
 62
     7
100
AcDbLine
 10
21.00000000000023
 20
35.0
 30
0.0
 11
205.0000000000002
 21
35.0
 31
0.0
  0
LINE
  5
83
330
47
100
AcDbEntity
  8
1
  6
Continuous
 62
     7
100
AcDbLine
 10
28.00000000000023
 20
30.0
 30
0.0
 11
28.00000000000023
 21
35.0
 31
0.0
  0
LINE
  5
84
330
47
100
AcDbEntity
  8
1
  6
Continuous
 62
     7
100
AcDbLine
 10
46.00000000000046
 20
30.0
 30
0.0
 11
46.00000000000046
 21
35.0
 31
0.0
  0
LINE
  5
85
330
47
100
AcDbEntity
  8
1
  6
Continuous
 62
     7
100
AcDbLine
 10
21.00000000000023
 20
40.0
 30
0.0
 11
205.0000000000002
 21
40.0
 31
0.0
  0
LINE
  5
86
330
47
100
AcDbEntity
  8
1
  6
Continuous
 62
     7
100
AcDbLine
 10
28.00000000000023
 20
35.0
 30
0.0
 11
28.00000000000023
 21
40.0
 31
0.0
  0
LINE
  5
87
330
47
100
AcDbEntity
  8
1
  6
Continuous
 62
     7
100
AcDbLine
 10
46.00000000000046
 20
35.0
 30
0.0
 11
46.00000000000046
 21
40.0
 31
0.0
  0
LINE
  5
88
330
47
100
AcDbEntity
  8
1
  6
Continuous
 62
     7
100
AcDbLine
 10
21.00000000000023
 20
4.99999999999989
 30
0.0
 11
205.0000000000002
 21
4.99999999999989
 31
0.0
  0
LINE
  5
89
330
47
100
AcDbEntity
  8
1
  6
Continuous
 62
     7
100
AcDbLine
 10
21.00000000000023
 20
20.0
 30
0.0
 11
205.0000000000002
 21
20.0
 31
0.0
  0
ARC
  5
8A
102
{ACAD_REACTORS
330
A6
102
}
330
47
100
AcDbEntity
  8
1
  6
Continuous
 62
     7
100
AcDbCircle
 10
190.2746002345516
 20
15.73121731203457
 30
0.0
 40
0.2649662124751131
100
AcDbArc
 50
30.00000000004072
 51
180.0
  0
ARC
  5
8B
102
{ACAD_REACTORS
330
A6
102
}
330
47
100
AcDbEntity
  8
1
  6
Continuous
 62
     7
100
AcDbCircle
 10
190.3429673554094
 20
10.84758507263291
 30
0.0
 40
0.3333333333332007
100
AcDbArc
 50
180.0
 51
0.0
  0
ARC
  5
8C
102
{ACAD_REACTORS
330
A6
102
}
330
47
100
AcDbEntity
  8
1
  6
Continuous
 62
     7
100
AcDbCircle
 10
193.0096340220764
 20
9.3082690706018
 30
0.0
 40
0.3333333333334849
100
AcDbArc
 50
180.0
 51
0.0
  0
ARC
  5
8D
102
{ACAD_REACTORS
330
A6
102
}
330
47
100
AcDbEntity
  8
1
  6
Continuous
 62
     7
100
AcDbCircle
 10
193.0780011429342
 20
15.73121731203457
 30
0.0
 40
0.2649662124752012
100
AcDbArc
 50
0.0
 51
149.9999999999593
  0
ARC
  5
8E
102
{ACAD_REACTORS
330
A7
102
}
330
47
100
AcDbEntity
  8
1
  6
Continuous
 62
     7
100
AcDbCircle
 10
189.0096340220762
 20
14.92250016016737
 30
0.0
 40
0.3333333333332007
100
AcDbArc
 50
0.0
 51
180.0
  0
ARC
  5
8F
102
{ACAD_REACTORS
330
A7
102
}
330
47
100
AcDbEntity
  8
1
  6
Continuous
 62
     7
100
AcDbCircle
 10
191.3429673554094
 20
8.7313459936787
 30
0.0
 40
0.3333333333333141
100
AcDbArc
 50
240.0183606311663
 51
60.01836063112398
  0
ARC
  5
90
102
{ACAD_REACTORS
330
A8
102
}
330
47
100
AcDbEntity
  8
1
  6
Continuous
 62
     7
100
AcDbCircle
 10
187.6763006887429
 20
14.15326939093666
 30
0.0
 40
0.333333333333286
100
AcDbArc
 50
0.0
 51
180.0
  0
ARC
  5
91
102
{ACAD_REACTORS
330
A8
102
}
330
47
100
AcDbEntity
  8
1
  6
Continuous
 62
     7
100
AcDbCircle
 10
187.6763006887429
 20
10.84673060906323
 30
0.0
 40
0.3333333333335133
100
AcDbArc
 50
180.0
 51
0.0
  0
ARC
  5
92
102
{ACAD_REACTORS
330
A9
102
}
330
47
100
AcDbEntity
  8
1
  6
Continuous
 62
     7
100
AcDbCircle
 10
195.6763006887429
 20
14.15326939093666
 30
0.0
 40
0.3333333333333187
100
AcDbArc
 50
240.0183606311668
 51
60.01836063116061
  0
ARC
  5
93
102
{ACAD_REACTORS
330
A9
102
}
330
47
100
AcDbEntity
  8
1
  6
Continuous
 62
     7
100
AcDbCircle
 10
195.6763006887429
 20
12.5
 30
0.0
 40
0.3333333333333695
100
AcDbArc
 50
270.0
 51
90.0
  0
ARC
  5
94
102
{ACAD_REACTORS
330
A9
102
}
330
47
100
AcDbEntity
  8
1
  6
Continuous
 62
     7
100
AcDbCircle
 10
195.6763006887429
 20
10.84673060906323
 30
0.0
 40
0.333333333333303
100
AcDbArc
 50
299.9816393688292
 51
119.9816393688238
  0
ARC
  5
95
102
{ACAD_REACTORS
330
A6
102
}
330
47
100
AcDbEntity
  8
1
  6
Continuous
 62
     7
100
AcDbCircle
 10
191.6763006887429
 20
12.83333333333326
 30
0.0
 40
0.1666666666667336
100
AcDbArc
 50
209.9999999999573
 51
330.0000000000036
  0
ARC
  5
96
102
{ACAD_REACTORS
330
A7
102
}
330
47
100
AcDbEntity
  8
1
  6
Continuous
 62
     7
100
AcDbCircle
 10
189.3429673554094
 20
10.2700211480327
 30
0.0
 40
0.6666666666664867
100
AcDbArc
 50
180.0000000000104
 51
240.0183606311664
  0
ARC
  5
97
330
47
100
AcDbEntity
  8
1
  6
Continuous
 62
     7
100
AcDbCircle
 10
183.343152489183
 20
12.5
 30
0.0
 40
0.1666666666665839
100
AcDbArc
 50
119.9816393688708
 51
240.0183606311496
  0
ARC
  5
98
330
47
100
AcDbEntity
  8
1
  6
Continuous
 62
     7
100
AcDbCircle
 10
200.0094488883028
 20
12.5
 30
0.0
 40
0.1666666666667296
100
AcDbArc
 50
299.9816393688757
 51
60.01836063110383
  0
ARC
  5
99
102
{ACAD_REACTORS
330
A9
102
}
330
47
100
AcDbEntity
  8
1
  6
Continuous
 62
     7
100
AcDbCircle
 10
194.3429673554094
 20
14.92250016016737
 30
0.0
 40
0.3333333333334592
100
AcDbArc
 50
60.01836063112428
 51
180.0
  0
ARC
  5
9A
102
{ACAD_REACTORS
330
A9
102
}
330
47
100
AcDbEntity
  8
1
  6
Continuous
 62
     7
100
AcDbCircle
 10
194.3429673554094
 20
10.07749983983263
 30
0.0
 40
0.3333333333330017
100
AcDbArc
 50
180.0
 51
299.9816393688757
  0
MTEXT
  5
9C
330
47
100
AcDbEntity
  8
1
 62
     7
100
AcDbMText
 10
36.00000000000023
 20
17.49999999999989
 30
0.0
 40
2.5
 41
0.0
 71
     5
 72
     1
  1
dimensions in mm
  7
CONVERTER_11
 73
     1
 44
0.60024009603842
  0
MTEXT
  5
9E
330
47
100
AcDbEntity
  8
1
 62
     7
100
AcDbMText
 10
16.0
 20
151.4999999999998
 30
0.0
 40
4.0
 41
0.0
 71
     5
 72
     1
  1
Diritti riservati      All rights reserved
  7
CONVERTER_12
 11
0.0
 21
1.0
 31
0.0
 73
     1
 44
1.32052821128451
  0
MTEXT
  5
9F
330
47
100
AcDbEntity
  8
1
 62
     7
100
AcDbMText
 10
22.00000000000023
 20
12.49999999999989
 30
0.0
 40
3.0
 41
0.0
 71
     4
 72
     1
  1
Date
  7
CONVERTER_12
 73
     1
 44
1.32052821128451
  0
MTEXT
  5
A0
330
47
100
AcDbEntity
  8
1
 62
     7
100
AcDbMText
 10
32.60000000000014
 20
12.49999999999989
 30
0.0
 40
3.0
 41
0.0
 71
     4
 72
     1
  1
20/06/14
  7
CONVERTER_12
 73
     1
 44
1.32052821128451
  0
MTEXT
  5
A1
330
47
100
AcDbEntity
  8
1
 62
     7
100
AcDbMText
 10
22.00000000000023
 20
7.49999999999989
 30
0.0
 40
3.0
 41
0.0
 71
     4
 72
     1
  1
Sign.
  7
CONVERTER_12
 73
     1
 44
1.32052821128451
  0
MTEXT
  5
A2
330
47
100
AcDbEntity
  8
1
 62
     7
100
AcDbMText
 10
32.60000000000014
 20
7.49999999999989
 30
0.0
 40
3.0
 41
0.0
 71
     4
 72
     1
  1
Radice
  7
CONVERTER_12
 73
     1
 44
1.32052821128451
  0
MTEXT
  5
A3
330
47
100
AcDbEntity
  8
1
 62
     7
100
AcDbMText
 10
57.27630068874305
 20
12.5
 30
0.0
 40
4.5
 41
0.0
 71
     4
 72
     1
  1
CQ 08 VA\PPlastic hood, side entry PG16
  7
CONVERTER_12
 73
     1
 44
0.90036014405762
  0
MTEXT
  5
A4
330
47
100
AcDbEntity
  8
1
 62
     7
100
AcDbMText
 10
169.6763006887429
 20
16.26063942075598
 30
0.0
 40
3.0
 41
0.0
 71
     5
 72
     1
  1
Scale
  7
CONVERTER_12
 73
     1
 44
1.32052821128451
  0
MTEXT
  5
A5
330
47
100
AcDbEntity
  8
1
 62
     7
100
AcDbMText
 10
169.6763006887429
 20
10.06063942075605
 30
0.0
 40
4.5
 41
0.0
 71
     5
 72
     1
  1
1:1
  7
CONVERTER_12
 73
     1
 44
1.32052821128451
  0
HATCH
  5
A6
330
47
100
AcDbEntity
  8
1
  6
Continuous
 62
     7
100
AcDbHatch
 10
0.0
 20
0.0
 30
0.0
210
0.0
220
0.0
230
1.0
  2
SOLID
 70
     1
 71
     1
 91
        1
 92
        1
 93
       16
 72
     2
 10
190.2746002345516
 20
15.73121731203457
 40
0.2649662124751131
 50
30.00000000004072
 51
180.0
 73
     1
 72
     1
 10
190.0096340220762
 20
15.73121731203457
 11
190.0096340220762
 21
12.5
 72
     1
 10
190.0096340220762
 20
12.5
 11
190.0096340220762
 21
10.84758507263291
 72
     2
 10
190.3429673554094
 20
10.84758507263291
 40
0.3333333333332007
 50
180.0
 51
360.0
 73
     1
 72
     1
 10
190.6763006887429
 20
10.84758507263291
 11
190.6763006887429
 21
12.5
 72
     1
 10
190.6763006887429
 20
12.5
 11
190.6763006887429
 21
14.23205080756884
 72
     1
 10
190.6763006887429
 20
14.23205080756884
 11
191.5319631214454
 21
12.75
 72
     2
 10
191.6763006887429
 20
12.83333333333326
 40
0.1666666666667336
 50
209.9999999999573
 51
330.0000000000036
 73
     1
 72
     1
 10
191.8206382560402
 20
12.75
 11
192.6763006887429
 21
14.23205080756884
 72
     1
 10
192.6763006887429
 20
14.23205080756884
 11
192.6763006887429
 21
12.5
 72
     1
 10
192.6763006887429
 20
12.5
 11
192.6763006887429
 21
9.308269070601796
 72
     2
 10
193.0096340220764
 20
9.308269070601796
 40
0.3333333333334849
 50
180.0
 51
360.0
 73
     1
 72
     1
 10
193.3429673554094
 20
9.308269070601796
 11
193.3429673554094
 21
15.73121731203457
 72
     2
 10
193.0780011429342
 20
15.73121731203457
 40
0.2649662124752012
 50
0.0
 51
149.9999999999593
 73
     1
 72
     1
 10
192.8485336717863
 20
15.86370041827229
 11
191.6763006887429
 21
13.83333333333326
 72
     1
 10
191.6763006887429
 20
13.83333333333326
 11
190.5040677056995
 21
15.86370041827229
 97
       16
330
6C
330
8D
330
6B
330
8C
330
6A
330
5E
330
5F
330
95
330
60
330
61
330
69
330
8B
330
68
330
66
330
8A
330
67
 75
     0
 76
     1
 98
        1
 10
0.0
 20
0.0
  0
HATCH
  5
A7
330
47
100
AcDbEntity
  8
1
  6
Continuous
 62
     7
100
AcDbHatch
 10
0.0
 20
0.0
 30
0.0
210
0.0
220
0.0
230
1.0
  2
SOLID
 70
     1
 71
     1
 91
        1
 92
        1
 93
        7
 72
     1
 10
189.3429673554094
 20
14.92250016016737
 11
189.3429673554094
 21
10.2700211480327
 72
     1
 10
189.3429673554094
 20
10.2700211480327
 11
191.5095415065728
 21
9.020074522361597
 72
     2
 10
191.3429673554094
 20
8.731345993678701
 40
0.3333333333333141
 50
299.981639368876
 51
479.9816393688338
 73
     0
 72
     1
 10
191.1763932042463
 20
8.442617464995806
 11
189.0098190530832
 21
9.692564090666906
 72
     2
 10
189.3429673554094
 20
10.2700211480327
 40
0.6666666666664867
 50
119.9816393688336
 51
179.9999999999896
 73
     0
 72
     1
 10
188.6763006887429
 20
10.27002114803258
 11
188.6763006887429
 21
14.92250016016737
 72
     2
 10
189.0096340220762
 20
14.92250016016737
 40
0.3333333333332007
 50
180.0
 51
360.0
 73
     0
 97
        7
330
6E
330
6F
330
8F
330
70
330
96
330
6D
330
8E
 75
     0
 76
     1
 98
        1
 10
0.0
 20
0.0
  0
HATCH
  5
A8
330
47
100
AcDbEntity
  8
1
  6
Continuous
 62
     7
100
AcDbHatch
 10
0.0
 20
0.0
 30
0.0
210
0.0
220
0.0
230
1.0
  2
SOLID
 70
     1
 71
     1
 91
        1
 92
        1
 93
        5
 72
     1
 10
188.0096340220762
 20
14.15326939093666
 11
188.0096340220762
 21
11.0392519172633
 72
     1
 10
188.0096340220762
 20
11.0392519172633
 11
188.0096340220762
 21
10.84673060906323
 72
     2
 10
187.6763006887429
 20
10.84673060906323
 40
0.3333333333335133
 50
0.0
 51
180.0
 73
     0
 72
     1
 10
187.3429673554094
 20
10.84673060906323
 11
187.3429673554094
 21
14.15326939093666
 72
     2
 10
187.6763006887429
 20
14.15326939093666
 40
0.333333333333286
 50
180.0
 51
360.0
 73
     0
 97
        5
330
71
330
72
330
91
330
73
330
90
 75
     0
 76
     1
 98
        1
 10
0.0
 20
0.0
  0
HATCH
  5
A9
330
47
100
AcDbEntity
  8
1
  6
Continuous
 62
     7
100
AcDbHatch
 10
0.0
 20
0.0
 30
0.0
210
0.0
220
0.0
230
1.0
  2
SOLID
 70
     1
 71
     1
 91
        1
 92
        1
 93
       14
 72
     1
 10
195.5097265375798
 20
13.86454086225376
 11
194.6763006887429
 21
14.34536346735195
 72
     1
 10
194.6763006887429
 20
14.34536346735195
 11
194.6763006887429
 21
12.83333333333326
 72
     1
 10
194.6763006887429
 20
12.83333333333326
 11
195.6763006887429
 21
12.83333333333326
 72
     2
 10
195.6763006887429
 20
12.5
 40
0.3333333333333695
 50
270.0
 51
450.0
 73
     0
 72
     1
 10
195.6763006887429
 20
12.16666666666663
 11
194.6763006887429
 21
12.16666666666663
 72
     1
 10
194.6763006887429
 20
12.16666666666663
 11
194.6763006887429
 21
10.65463653264794
 72
     1
 10
194.6763006887429
 20
10.65463653264794
 11
195.5097265375798
 21
11.13545913774624
 72
     2
 10
195.6763006887429
 20
10.84673060906323
 40
0.333333333333303
 50
240.0183606311762
 51
420.0183606311708
 73
     0
 72
     1
 10
195.842874839906
 20
10.55800208038033
 11
194.5095415065728
 21
9.78877131114973
 72
     2
 10
194.3429673554094
 20
10.07749983983263
 40
0.3333333333330017
 50
60.0183606311243
 51
180.0
 73
     0
 72
     1
 10
194.0096340220764
 20
10.07749983983263
 11
194.0096340220764
 21
14.92250016016737
 72
     2
 10
194.3429673554094
 20
14.92250016016737
 40
0.3333333333334592
 50
180.0
 51
299.9816393688757
 73
     0
 72
     1
 10
194.5095415065728
 20
15.21122868885027
 11
195.842874839906
 21
14.44199791961944
 72
     2
 10
195.6763006887429
 20
14.15326939093666
 40
0.3333333333333187
 50
299.9816393688394
 51
479.9816393688333
 73
     0
 97
       14
330
74
330
99
330
5D
330
9A
330
7B
330
94
330
7A
330
79
330
78
330
93
330
77
330
76
330
75
330
92
 75
     0
 76
     1
 98
        1
 10
0.0
 20
0.0
  0
ENDBLK
  5
49
330
47
100
AcDbEntity
  8
0
100
AcDbBlockEnd
  0
BLOCK
  5
4C
330
4A
100
AcDbEntity
  8
0
100
AcDbBlockBegin
  2
A4
 70
     0
 10
210.0000000000002
 20
0.0
 30
0.0
  3
A4
  1

  0
INSERT
  5
4B
330
4A
100
AcDbEntity
  8
1
100
AcDbBlockReference
  2
_formato_A4
 10
210.0000000000002
 20
0.0
 30
0.0
  0
ENDBLK
  5
4D
330
4A
100
AcDbEntity
  8
0
100
AcDbBlockEnd
  0
BLOCK
  5
2D0
330
2C8
100
AcDbEntity
  8
0
100
AcDbBlockBegin
  2
*D3
 70
     1
 10
0.0
 20
0.0
 30
0.0
  3
*D3
  1

  0
LINE
  5
2C9
330
2C8
100
AcDbEntity
  8
1
  6
Continuous
 62
     2
100
AcDbLine
 10
45.76974534091923
 20
133.225233133655
 30
0.0
 11
93.76974534091923
 21
133.225233133655
 31
0.0
  0
LINE
  5
2CA
330
2C8
100
AcDbEntity
  8
1
  6
Continuous
 62
     2
100
AcDbLine
 10
93.76974534091923
 20
152.3922456525206
 30
0.0
 11
93.76974534091923
 21
132.225233133655
 31
0.0
  0
LINE
  5
2CB
330
2C8
100
AcDbEntity
  8
1
  6
Continuous
 62
     2
100
AcDbLine
 10
45.76974534091923
 20
152.3922456525206
 30
0.0
 11
45.76974534091923
 21
132.225233133655
 31
0.0
  0
SOLID
  5
2CC
330
2C8
100
AcDbEntity
  8
1
 62
     2
100
AcDbTrace
 10
48.76974534091923
 20
133.6201906264172
 30
0.0
 11
48.76974534091923
 21
132.8302756408928
 31
0.0
 12
45.76974534091923
 22
133.225233133655
 32
0.0
 13
45.76974534091923
 23
133.225233133655
 33
0.0
  0
SOLID
  5
2CD
330
2C8
100
AcDbEntity
  8
1
 62
     2
100
AcDbTrace
 10
90.76974534091923
 20
132.8302756408928
 30
0.0
 11
90.76974534091923
 21
133.6201906264172
 31
0.0
 12
93.76974534091923
 22
133.225233133655
 32
0.0
 13
93.76974534091923
 23
133.225233133655
 33
0.0
  0
MTEXT
  5
2CF
330
2C8
100
AcDbEntity
  8
1
 62
     4
100
AcDbMText
 10
67.51974534091923
 20
135.225233133655
 30
0.0
 40
3.0
 41
0.0
 71
     7
 72
     1
  1
48
  7
CONVERTER_13
 11
0.9999999999970619
 21
2.424068405545306E-6
 31
0.0
 73
     1
 44
0.60024009603842
  0
ENDBLK
  5
2D1
330
2C8
100
AcDbEntity
  8
0
100
AcDbBlockEnd
  0
BLOCK
  5
2DB
330
2D4
100
AcDbEntity
  8
0
100
AcDbBlockBegin
  2
*D4
 70
     1
 10
0.0
 20
0.0
 30
0.0
  3
*D4
  1

  0
LINE
  5
2D5
330
2D4
100
AcDbEntity
  8
1
  6
Continuous
 62
     2
100
AcDbLine
 10
137.4197453409195
 20
133.075233133655
 30
0.0
 11
165.9197453409193
 21
133.075233133655
 31
0.0
  0
LINE
  5
2D6
330
2D4
100
AcDbEntity
  8
1
  6
Continuous
 62
     2
100
AcDbLine
 10
165.9197453409193
 20
152.3922456525206
 30
0.0
 11
165.9197453409193
 21
132.075233133655
 31
0.0
  0
LINE
  5
2D7
330
2D4
100
AcDbEntity
  8
1
  6
Continuous
 62
     2
100
AcDbLine
 10
137.4197453409195
 20
152.3922456525206
 30
0.0
 11
137.4197453409195
 21
132.075233133655
 31
0.0
  0
SOLID
  5
2D8
330
2D4
100
AcDbEntity
  8
1
 62
     2
100
AcDbTrace
 10
140.4197453409195
 20
133.4701906264172
 30
0.0
 11
140.4197453409195
 21
132.6802756408928
 31
0.0
 12
137.4197453409195
 22
133.075233133655
 32
0.0
 13
137.4197453409195
 23
133.075233133655
 33
0.0
  0
SOLID
  5
2D9
330
2D4
100
AcDbEntity
  8
1
 62
     2
100
AcDbTrace
 10
162.9197453409193
 20
132.6802756408928
 30
0.0
 11
162.9197453409193
 21
133.4701906264172
 31
0.0
 12
165.9197453409193
 22
133.075233133655
 32
0.0
 13
165.9197453409193
 23
133.075233133655
 33
0.0
  0
MTEXT
  5
2DA
330
2D4
100
AcDbEntity
  8
1
 62
     4
100
AcDbMText
 10
147.3947453409194
 20
135.375233133655
 30
0.0
 40
3.0
 41
0.0
 71
     7
 72
     1
  1
28,5
  7
CONVERTER_13
 11
0.9999999999970619
 21
2.424068405545306E-6
 31
0.0
 73
     1
 44
0.60024009603842
  0
ENDBLK
  5
2DC
330
2D4
100
AcDbEntity
  8
0
100
AcDbBlockEnd
  0
BLOCK
  5
2E6
330
2DF
100
AcDbEntity
  8
0
100
AcDbBlockBegin
  2
*D5
 70
     1
 10
0.0
 20
0.0
 30
0.0
  3
*D5
  1

  0
LINE
  5
2E0
330
2DF
100
AcDbEntity
  8
1
  6
Continuous
 62
     2
100
AcDbLine
 10
134.2697453409194
 20
117.844206333514
 30
0.0
 11
169.0697453409194
 21
117.844206333514
 31
0.0
  0
LINE
  5
2E1
330
2DF
100
AcDbEntity
  8
1
  6
Continuous
 62
     2
100
AcDbLine
 10
169.0697453409194
 20
160.8922456525206
 30
0.0
 11
169.0697453409194
 21
116.844206333514
 31
0.0
  0
LINE
  5
2E2
330
2DF
100
AcDbEntity
  8
1
  6
Continuous
 62
     2
100
AcDbLine
 10
134.2697453409194
 20
160.8922456525206
 30
0.0
 11
134.2697453409194
 21
116.844206333514
 31
0.0
  0
SOLID
  5
2E3
330
2DF
100
AcDbEntity
  8
1
 62
     2
100
AcDbTrace
 10
137.2697453409194
 20
118.2391638262762
 30
0.0
 11
137.2697453409194
 21
117.4492488407518
 31
0.0
 12
134.2697453409194
 22
117.844206333514
 32
0.0
 13
134.2697453409194
 23
117.844206333514
 33
0.0
  0
SOLID
  5
2E4
330
2DF
100
AcDbEntity
  8
1
 62
     2
100
AcDbTrace
 10
166.0697453409194
 20
117.4492488407518
 30
0.0
 11
166.0697453409194
 21
118.2391638262762
 31
0.0
 12
169.0697453409194
 22
117.844206333514
 32
0.0
 13
169.0697453409194
 23
117.844206333514
 33
0.0
  0
MTEXT
  5
2E5
330
2DF
100
AcDbEntity
  8
1
 62
     4
100
AcDbMText
 10
147.5447453409194
 20
120.144206333514
 30
0.0
 40
3.0
 41
0.0
 71
     7
 72
     1
  1
34,8
  7
CONVERTER_13
 11
0.9999999999970619
 21
2.424068405545306E-6
 31
0.0
 73
     1
 44
0.60024009603842
  0
ENDBLK
  5
2E7
330
2DF
100
AcDbEntity
  8
0
100
AcDbBlockEnd
  0
BLOCK
  5
2F1
330
2EA
100
AcDbEntity
  8
0
100
AcDbBlockBegin
  2
*D6
 70
     1
 10
0.0
 20
0.0
 30
0.0
  3
*D6
  1

  0
LINE
  5
2EB
330
2EA
100
AcDbEntity
  8
1
  6
Continuous
 62
     2
100
AcDbLine
 10
186.0356671743033
 20
152.8922456525206
 30
0.0
 11
186.0356671743033
 21
206.8922456525206
 31
0.0
  0
LINE
  5
2EC
330
2EA
100
AcDbEntity
  8
1
  6
Continuous
 62
     2
100
AcDbLine
 10
163.4197453409194
 20
206.8922456525206
 30
0.0
 11
187.0356671743033
 21
206.8922456525206
 31
0.0
  0
LINE
  5
2ED
330
2EA
100
AcDbEntity
  8
1
  6
Continuous
 62
     2
100
AcDbLine
 10
159.0197453409193
 20
152.8922456525206
 30
0.0
 11
187.0356671743033
 21
152.8922456525206
 31
0.0
  0
SOLID
  5
2EE
330
2EA
100
AcDbEntity
  8
1
 62
     2
100
AcDbTrace
 10
185.6407096815411
 20
155.8922456525206
 30
0.0
 11
186.4306246670655
 21
155.8922456525206
 31
0.0
 12
186.0356671743033
 22
152.8922456525206
 32
0.0
 13
186.0356671743033
 23
152.8922456525206
 33
0.0
  0
SOLID
  5
2EF
330
2EA
100
AcDbEntity
  8
1
 62
     2
100
AcDbTrace
 10
186.4306246670655
 20
203.8922456525206
 30
0.0
 11
185.6407096815411
 21
203.8922456525206
 31
0.0
 12
186.0356671743033
 22
206.8922456525206
 32
0.0
 13
186.0356671743033
 23
206.8922456525206
 33
0.0
  0
MTEXT
  5
2F0
330
2EA
100
AcDbEntity
  8
1
 62
     4
100
AcDbMText
 10
184.0356671743033
 20
177.6422456525206
 30
0.0
 40
3.0
 41
0.0
 71
     7
 72
     1
  1
54
  7
CONVERTER_13
 11
0.0
 21
1.0
 31
0.0
 73
     1
 44
0.60024009603842
  0
ENDBLK
  5
2F2
330
2EA
100
AcDbEntity
  8
0
100
AcDbBlockEnd
  0
BLOCK
  5
2FC
330
2F5
100
AcDbEntity
  8
0
100
AcDbBlockBegin
  2
*D7
 70
     1
 10
0.0
 20
0.0
 30
0.0
  3
*D7
  1

  0
LINE
  5
2F6
330
2F5
100
AcDbEntity
  8
1
  6
Continuous
 62
     2
100
AcDbLine
 10
107.9116153298569
 20
211.10715357055
 30
0.0
 11
113.683280035644
 21
189.5670076443039
 31
0.0
  0
LINE
  5
2F7
330
2F5
100
AcDbEntity
  8
1
  6
Continuous
 62
     2
100
AcDbLine
 10
103.110143028381
 20
186.7339441217437
 30
0.0
 11
114.6492058619331
 21
189.8258266894064
 31
0.0
  0
LINE
  5
2F8
330
2F5
100
AcDbEntity
  8
1
  6
Continuous
 62
     2
100
AcDbLine
 10
97.33847832259391
 20
208.2740900479899
 30
0.0
 11
108.877541156146
 21
211.3659726156526
 31
0.0
  0
SOLID
  5
2F9
330
2F5
100
AcDbEntity
  8
1
 62
     2
100
AcDbTrace
 10
109.0695721077099
 20
208.3115986128157
 30
0.0
 11
108.3065728226192
 21
208.10715357055
 31
0.0
 12
107.9116153298569
 22
211.10715357055
 32
0.0
 13
107.9116153298569
 23
211.10715357055
 33
0.0
  0
SOLID
  5
2FA
330
2F5
100
AcDbEntity
  8
1
 62
     2
100
AcDbTrace
 10
112.5253232577909
 20
192.3625626020382
 30
0.0
 11
113.2883225428817
 21
192.5670076443039
 31
0.0
 12
113.683280035644
 22
189.5670076443039
 32
0.0
 13
113.683280035644
 23
189.5670076443039
 33
0.0
  0
MTEXT
  5
2FB
330
2F5
100
AcDbEntity
  8
1
 62
     4
100
AcDbMText
 10
112.1621868786695
 20
206.4485441741287
 30
0.0
 40
3.0
 41
0.0
 71
     7
 72
     1
  1
Pg 16
  7
CONVERTER_13
 11
0.2588190451025579
 21
-0.9659258262890584
 31
0.0
 73
     1
 44
0.60024009603842
  0
ENDBLK
  5
2FD
330
2F5
100
AcDbEntity
  8
0
100
AcDbBlockEnd
  0
BLOCK
  5
307
330
300
100
AcDbEntity
  8
0
100
AcDbBlockBegin
  2
*D8
 70
     1
 10
0.0
 20
0.0
 30
0.0
  3
*D8
  1

  0
LINE
  5
301
330
300
100
AcDbEntity
  8
1
  6
Continuous
 62
     2
100
AcDbLine
 10
93.76974534091923
 20
133.075233133655
 30
0.0
 11
102.381302022389
 21
133.075233133655
 31
0.0
  0
LINE
  5
302
330
300
100
AcDbEntity
  8
1
  6
Continuous
 62
     2
100
AcDbLine
 10
102.381302022389
 20
187.022164134167
 30
0.0
 11
102.381302022389
 21
132.075233133655
 31
0.0
  0
LINE
  5
303
330
300
100
AcDbEntity
  8
1
  6
Continuous
 62
     2
100
AcDbLine
 10
93.76974534091923
 20
152.3922456525206
 30
0.0
 11
93.76974534091923
 21
132.075233133655
 31
0.0
  0
SOLID
  5
304
330
300
100
AcDbEntity
  8
1
 62
     2
100
AcDbTrace
 10
96.76974534091923
 20
133.4701906264172
 30
0.0
 11
96.76974534091923
 21
132.6802756408928
 31
0.0
 12
93.76974534091923
 22
133.075233133655
 32
0.0
 13
93.76974534091923
 23
133.075233133655
 33
0.0
  0
SOLID
  5
305
330
300
100
AcDbEntity
  8
1
 62
     2
100
AcDbTrace
 10
99.38130202238901
 20
132.6802756408928
 30
0.0
 11
99.38130202238901
 21
133.4701906264172
 31
0.0
 12
102.381302022389
 22
133.075233133655
 32
0.0
 13
102.381302022389
 23
133.075233133655
 33
0.0
  0
MTEXT
  5
306
330
300
100
AcDbEntity
  8
1
 62
     4
100
AcDbMText
 10
95.15052368165418
 20
135.375233133655
 30
0.0
 40
3.0
 41
0.0
 71
     7
 72
     1
  1
8,6
  7
CONVERTER_13
 11
0.9999999999970619
 21
2.424068405545306E-6
 31
0.0
 73
     1
 44
0.60024009603842
  0
ENDBLK
  5
308
330
300
100
AcDbEntity
  8
0
100
AcDbBlockEnd
  0
BLOCK
  5
314
330
30B
100
AcDbEntity
  8
0
100
AcDbBlockBegin
  2
*D9
 70
     1
 10
0.0
 20
0.0
 30
0.0
  3
*D9
  1

  0
LINE
  5
30C
330
30B
100
AcDbEntity
  8
1
  6
Continuous
 62
     2
100
AcDbLine
 10
186.0356671743033
 20
208.1446805254386
 30
0.0
 11
186.0356671743033
 21
220.568862117362
 31
0.0
  0
LINE
  5
30D
330
30B
100
AcDbEntity
  8
1
  6
Continuous
 62
     2
100
AcDbLine
 10
186.0356671743033
 20
206.8922456525206
 30
0.0
 11
186.0356671743033
 21
208.1446805254386
 31
0.0
  0
LINE
  5
30E
330
30B
100
AcDbEntity
  8
1
  6
Continuous
 62
     2
100
AcDbLine
 10
186.0356671743033
 20
200.8922456525206
 30
0.0
 11
186.0356671743033
 21
206.8922456525206
 31
0.0
  0
LINE
  5
30F
330
30B
100
AcDbEntity
  8
1
  6
Continuous
 62
     2
100
AcDbLine
 10
152.1697453409195
 20
208.1446805254386
 30
0.0
 11
187.0356671743033
 21
208.1446805254386
 31
0.0
  0
LINE
  5
310
330
30B
100
AcDbEntity
  8
1
  6
Continuous
 62
     2
100
AcDbLine
 10
163.4197453409193
 20
206.8922456525206
 30
0.0
 11
187.0356671743033
 21
206.8922456525206
 31
0.0
  0
SOLID
  5
311
330
30B
100
AcDbEntity
  8
1
 62
     2
100
AcDbTrace
 10
186.4306246670655
 20
203.8922456525206
 30
0.0
 11
185.6407096815411
 21
203.8922456525206
 31
0.0
 12
186.0356671743033
 22
206.8922456525206
 32
0.0
 13
186.0356671743033
 23
206.8922456525206
 33
0.0
  0
SOLID
  5
312
330
30B
100
AcDbEntity
  8
1
 62
     2
100
AcDbTrace
 10
185.6407096815411
 20
211.1446805254386
 30
0.0
 11
186.4306246670655
 21
211.1446805254386
 31
0.0
 12
186.0356671743033
 22
208.1446805254386
 32
0.0
 13
186.0356671743033
 23
208.1446805254386
 33
0.0
  0
MTEXT
  5
313
330
30B
100
AcDbEntity
  8
1
 62
     4
100
AcDbMText
 10
183.7356671743033
 20
215.918862117362
 30
0.0
 40
3.0
 41
0.0
 71
     7
 72
     1
  1
1,3
  7
CONVERTER_13
 11
0.0
 21
1.0
 31
0.0
 73
     1
 44
0.60024009603842
  0
ENDBLK
  5
315
330
30B
100
AcDbEntity
  8
0
100
AcDbBlockEnd
  0
ENDSEC
  0
SECTION
  2
ENTITIES
  0
INSERT
  5
4E
330
1F
100
AcDbEntity
  8
0
100
AcDbBlockReference
  2
A4
 10
210.0000000000002
 20
0.0
 30
0.0
  0
LINE
  5
AA
330
1F
100
AcDbEntity
  8
0
  6
Continuous
 62
     7
100
AcDbLine
 10
83.5010853737734
 20
206.8922456525206
 30
0.0
 11
56.03840530806528
 21
206.8922456525206
 31
0.0
  0
LINE
  5
AB
330
1F
100
AcDbEntity
  8
0
  6
Continuous
 62
     2
100
AcDbLine
 10
56.03840530806528
 20
203.8922456525206
 30
0.0
 11
56.03840530806528
 21
206.8922456525206
 31
0.0
  0
LINE
  5
AC
330
1F
100
AcDbEntity
  8
0
  6
Continuous
 62
     2
100
AcDbLine
 10
83.5010853737734
 20
203.8922456525206
 30
0.0
 11
56.03840530806528
 21
203.8922456525206
 31
0.0
  0
LINE
  5
AD
330
1F
100
AcDbEntity
  8
0
  6
Continuous
 62
     2
100
AcDbLine
 10
67.96974534091927
 20
195.3445767486219
 30
0.0
 11
67.96974534091927
 21
192.5530893413411
 31
0.0
  0
LINE
  5
AE
330
1F
100
AcDbEntity
  8
0
  6
Continuous
 62
     2
100
AcDbLine
 10
55.50250692320228
 20
201.8922456525206
 30
0.0
 11
56.03840530806528
 21
203.8922456525206
 31
0.0
  0
LINE
  5
AF
330
1F
100
AcDbEntity
  8
0
  6
Continuous
 62
     2
100
AcDbLine
 10
53.14062782919731
 20
204.6687027878281
 30
0.0
 11
56.03840530806528
 21
203.8922456525206
 31
0.0
  0
LINE
  5
B0
330
1F
100
AcDbEntity
  8
0
  6
Continuous
 62
     7
100
AcDbLine
 10
49.16832112185224
 20
186.8922456525206
 30
0.0
 11
52.91960981588827
 21
200.8922456525206
 31
0.0
  0
LINE
  5
B1
330
1F
100
AcDbEntity
  8
0
  6
Continuous
 62
     7
100
AcDbLine
 10
84.03698375863527
 20
201.8922456525206
 30
0.0
 11
55.50250692320228
 21
201.8922456525206
 31
0.0
  0
LINE
  5
B2
330
1F
100
AcDbEntity
  8
0
  6
Continuous
 62
     7
100
AcDbLine
 10
52.91960981588827
 20
200.8922456525206
 30
0.0
 11
86.61988086594928
 21
200.8922456525206
 31
0.0
  0
LINE
  5
B3
330
1F
100
AcDbEntity
  8
0
  6
Continuous
 62
     2
100
AcDbLine
 10
86.36974534091937
 20
172.0922456525206
 30
0.0
 11
92.76974534091923
 21
172.0922456525206
 31
0.0
  0
LINE
  5
B4
330
1F
100
AcDbEntity
  8
0
  6
Continuous
 62
     7
100
AcDbLine
 10
92.42990851221643
 20
170.8254883351333
 30
0.0
 11
92.60958216962226
 21
170.6590029699077
 31
0.0
  0
LINE
  5
B5
330
1F
100
AcDbEntity
  8
0
  6
Continuous
 62
     2
100
AcDbLine
 10
86.36974534091937
 20
170.8254883351333
 30
0.0
 11
92.42990851221643
 21
170.8254883351333
 31
0.0
  0
LINE
  5
B6
330
1F
100
AcDbEntity
  8
0
  6
Continuous
 62
     2
100
AcDbLine
 10
86.36974534091937
 20
170.6590029699077
 30
0.0
 11
92.60958216962226
 21
170.6590029699077
 31
0.0
  0
LINE
  5
B7
330
1F
100
AcDbEntity
  8
0
  6
Continuous
 62
     7
100
AcDbLine
 10
92.76974534091923
 20
166.6922456525205
 30
0.0
 11
92.76974534091923
 21
168.4922456525205
 31
0.0
  0
LINE
  5
B8
330
1F
100
AcDbEntity
  8
0
  6
Continuous
 62
     7
100
AcDbLine
 10
92.76974534091923
 20
170.2922456525205
 30
0.0
 11
92.76974534091923
 21
172.0922456525206
 31
0.0
  0
LINE
  5
B9
330
1F
100
AcDbEntity
  8
0
  6
Continuous
 62
     7
100
AcDbLine
 10
92.76974534091923
 20
168.4922456525205
 30
0.0
 11
92.76974534091923
 21
170.2922456525205
 31
0.0
  0
LINE
  5
BA
330
1F
100
AcDbEntity
  8
0
  6
Continuous
 62
     7
100
AcDbLine
 10
47.10958216962226
 20
171.5590029699078
 30
0.0
 11
46.92990851221643
 21
171.7254883351334
 31
0.0
  0
LINE
  5
BB
330
1F
100
AcDbEntity
  8
0
  6
Continuous
 62
     7
100
AcDbLine
 10
47.10958216962226
 20
170.8254883351333
 30
0.0
 11
46.92990851221643
 21
170.6590029699077
 31
0.0
  0
LINE
  5
BC
330
1F
100
AcDbEntity
  8
0
  6
Continuous
 62
     7
100
AcDbLine
 10
46.76974534091923
 20
172.0922456525206
 30
0.0
 11
46.76974534091923
 21
170.2922456525205
 31
0.0
  0
LINE
  5
BD
330
1F
100
AcDbEntity
  8
0
  6
Continuous
 62
     2
100
AcDbLine
 10
86.36974534091937
 20
171.5590029699078
 30
0.0
 11
86.36974534091937
 21
171.7254883351334
 31
0.0
  0
LINE
  5
BE
330
1F
100
AcDbEntity
  8
0
  6
Continuous
 62
     2
100
AcDbLine
 10
86.36974534091937
 20
170.8254883351333
 30
0.0
 11
86.36974534091937
 21
170.6590029699077
 31
0.0
  0
LINE
  5
BF
330
1F
100
AcDbEntity
  8
0
  6
Continuous
 62
     2
100
AcDbLine
 10
86.36974534091937
 20
170.8254883351333
 30
0.0
 11
86.36974534091937
 21
171.5590029699078
 31
0.0
  0
LINE
  5
C0
330
1F
100
AcDbEntity
  8
0
  6
Continuous
 62
     2
100
AcDbLine
 10
86.36974534091937
 20
169.7590029699076
 30
0.0
 11
53.16974534091932
 21
169.7590029699076
 31
0.0
  0
LINE
  5
C1
330
1F
100
AcDbEntity
  8
0
  6
Continuous
 62
     2
100
AcDbLine
 10
53.16974534091932
 20
169.7590029699076
 30
0.0
 11
53.16974534091932
 21
169.9254883351334
 31
0.0
  0
LINE
  5
C2
330
1F
100
AcDbEntity
  8
0
  6
Continuous
 62
     2
100
AcDbLine
 10
86.36974534091937
 20
170.6590029699077
 30
0.0
 11
86.36974534091937
 21
169.9254883351334
 31
0.0
  0
LINE
  5
C3
330
1F
100
AcDbEntity
  8
0
  6
Continuous
 62
     2
100
AcDbLine
 10
86.36974534091937
 20
170.6590029699077
 30
0.0
 11
53.16974534091932
 21
170.6590029699077
 31
0.0
  0
LINE
  5
C4
330
1F
100
AcDbEntity
  8
0
  6
Continuous
 62
     2
100
AcDbLine
 10
86.36974534091937
 20
169.9254883351334
 30
0.0
 11
53.16974534091932
 21
169.9254883351334
 31
0.0
  0
LINE
  5
C5
330
1F
100
AcDbEntity
  8
0
  6
Continuous
 62
     2
100
AcDbLine
 10
86.36974534091937
 20
169.0254883351333
 30
0.0
 11
53.16974534091932
 21
169.0254883351333
 31
0.0
  0
LINE
  5
C6
330
1F
100
AcDbEntity
  8
0
  6
Continuous
 62
     2
100
AcDbLine
 10
86.36974534091937
 20
168.8590029699078
 30
0.0
 11
53.16974534091932
 21
168.8590029699078
 31
0.0
  0
LINE
  5
C7
330
1F
100
AcDbEntity
  8
0
  6
Continuous
 62
     2
100
AcDbLine
 10
86.36974534091937
 20
167.0590029699078
 30
0.0
 11
53.16974534091932
 21
167.0590029699078
 31
0.0
  0
LINE
  5
C8
330
1F
100
AcDbEntity
  8
0
  6
Continuous
 62
     2
100
AcDbLine
 10
53.16974534091932
 20
167.0590029699078
 30
0.0
 11
46.92990851221643
 21
167.0590029699078
 31
0.0
  0
LINE
  5
C9
330
1F
100
AcDbEntity
  8
0
  6
Continuous
 62
     2
100
AcDbLine
 10
53.16974534091932
 20
167.9590029699077
 30
0.0
 11
47.10958216962226
 21
167.9590029699077
 31
0.0
  0
LINE
  5
CA
330
1F
100
AcDbEntity
  8
0
  6
Continuous
 62
     2
100
AcDbLine
 10
53.16974534091932
 20
167.2254883351334
 30
0.0
 11
47.10958216962226
 21
167.2254883351334
 31
0.0
  0
LINE
  5
CB
330
1F
100
AcDbEntity
  8
0
  6
Continuous
 62
     2
100
AcDbLine
 10
53.16974534091932
 20
167.9590029699077
 30
0.0
 11
53.16974534091932
 21
168.1254883351334
 31
0.0
  0
LINE
  5
CC
330
1F
100
AcDbEntity
  8
0
  6
Continuous
 62
     7
100
AcDbLine
 10
47.10958216962226
 20
167.2254883351334
 30
0.0
 11
46.92990851221643
 21
167.0590029699078
 31
0.0
  0
LINE
  5
CD
330
1F
100
AcDbEntity
  8
0
  6
Continuous
 62
     7
100
AcDbLine
 10
47.10958216962226
 20
167.9590029699077
 30
0.0
 11
46.92990851221643
 21
168.1254883351332
 31
0.0
  0
LINE
  5
CE
330
1F
100
AcDbEntity
  8
0
  6
Continuous
 62
     7
100
AcDbLine
 10
46.76974534091923
 20
168.4922456525205
 30
0.0
 11
46.76974534091923
 21
166.6922456525205
 31
0.0
  0
LINE
  5
CF
330
1F
100
AcDbEntity
  8
0
  6
Continuous
 62
     2
100
AcDbLine
 10
53.16974534091932
 20
167.2254883351334
 30
0.0
 11
53.16974534091932
 21
167.0590029699078
 31
0.0
  0
LINE
  5
D0
330
1F
100
AcDbEntity
  8
0
  6
Continuous
 62
     2
100
AcDbLine
 10
86.36974534091937
 20
167.2254883351334
 30
0.0
 11
53.16974534091932
 21
167.2254883351334
 31
0.0
  0
LINE
  5
D1
330
1F
100
AcDbEntity
  8
0
  6
Continuous
 62
     2
100
AcDbLine
 10
53.16974534091932
 20
167.9590029699077
 30
0.0
 11
53.16974534091932
 21
167.2254883351334
 31
0.0
  0
LINE
  5
D2
330
1F
100
AcDbEntity
  8
0
  6
Continuous
 62
     2
100
AcDbLine
 10
86.36974534091937
 20
167.9590029699077
 30
0.0
 11
53.16974534091932
 21
167.9590029699077
 31
0.0
  0
LINE
  5
D3
330
1F
100
AcDbEntity
  8
0
  6
Continuous
 62
     2
100
AcDbLine
 10
53.16974534091932
 20
168.1254883351334
 30
0.0
 11
46.92990851221643
 21
168.1254883351332
 31
0.0
  0
LINE
  5
D4
330
1F
100
AcDbEntity
  8
0
  6
Continuous
 62
     2
100
AcDbLine
 10
86.36974534091937
 20
168.1254883351334
 30
0.0
 11
53.16974534091932
 21
168.1254883351334
 31
0.0
  0
LINE
  5
D5
330
1F
100
AcDbEntity
  8
0
  6
Continuous
 62
     2
100
AcDbLine
 10
46.76974534091923
 20
172.0922456525206
 30
0.0
 11
53.16974534091932
 21
172.0922456525206
 31
0.0
  0
LINE
  5
D6
330
1F
100
AcDbEntity
  8
0
  6
Continuous
 62
     2
100
AcDbLine
 10
53.16974534091932
 20
172.0922456525206
 30
0.0
 11
86.36974534091937
 21
172.0922456525206
 31
0.0
  0
LINE
  5
D7
330
1F
100
AcDbEntity
  8
0
  6
Continuous
 62
     2
100
AcDbLine
 10
53.16974534091932
 20
171.5590029699078
 30
0.0
 11
47.10958216962226
 21
171.5590029699078
 31
0.0
  0
LINE
  5
D8
330
1F
100
AcDbEntity
  8
0
  6
Continuous
 62
     2
100
AcDbLine
 10
86.36974534091937
 20
171.5590029699078
 30
0.0
 11
53.16974534091932
 21
171.5590029699078
 31
0.0
  0
LINE
  5
D9
330
1F
100
AcDbEntity
  8
0
  6
Continuous
 62
     2
100
AcDbLine
 10
86.36974534091937
 20
171.7254883351334
 30
0.0
 11
53.16974534091932
 21
171.7254883351334
 31
0.0
  0
LINE
  5
DA
330
1F
100
AcDbEntity
  8
0
  6
Continuous
 62
     2
100
AcDbLine
 10
53.16974534091932
 20
171.7254883351334
 30
0.0
 11
46.92990851221643
 21
171.7254883351334
 31
0.0
  0
LINE
  5
DB
330
1F
100
AcDbEntity
  8
0
  6
Continuous
 62
     2
100
AcDbLine
 10
53.16974534091932
 20
169.0254883351333
 30
0.0
 11
53.16974534091932
 21
168.8590029699078
 31
0.0
  0
LINE
  5
DC
330
1F
100
AcDbEntity
  8
0
  6
Continuous
 62
     2
100
AcDbLine
 10
53.16974534091932
 20
170.8254883351333
 30
0.0
 11
53.16974534091932
 21
170.6590029699077
 31
0.0
  0
LINE
  5
DD
330
1F
100
AcDbEntity
  8
0
  6
Continuous
 62
     2
100
AcDbLine
 10
53.16974534091932
 20
171.5590029699078
 30
0.0
 11
53.16974534091932
 21
171.7254883351334
 31
0.0
  0
LINE
  5
DE
330
1F
100
AcDbEntity
  8
0
  6
Continuous
 62
     2
100
AcDbLine
 10
53.16974534091932
 20
171.5590029699078
 30
0.0
 11
53.16974534091932
 21
170.8254883351333
 31
0.0
  0
LINE
  5
DF
330
1F
100
AcDbEntity
  8
0
  6
Continuous
 62
     2
100
AcDbLine
 10
53.16974534091932
 20
169.9254883351334
 30
0.0
 11
53.16974534091932
 21
170.6590029699077
 31
0.0
  0
LINE
  5
E0
330
1F
100
AcDbEntity
  8
0
  6
Continuous
 62
     2
100
AcDbLine
 10
53.16974534091932
 20
168.1254883351334
 30
0.0
 11
53.16974534091932
 21
168.8590029699078
 31
0.0
  0
LINE
  5
E1
330
1F
100
AcDbEntity
  8
0
  6
Continuous
 62
     2
100
AcDbLine
 10
53.16974534091932
 20
169.7590029699076
 30
0.0
 11
53.16974534091932
 21
169.0254883351333
 31
0.0
  0
LINE
  5
E2
330
1F
100
AcDbEntity
  8
0
  6
Continuous
 62
     2
100
AcDbLine
 10
53.16974534091932
 20
171.7254883351334
 30
0.0
 11
53.16974534091932
 21
172.0922456525206
 31
0.0
  0
LINE
  5
E3
330
1F
100
AcDbEntity
  8
0
  6
Continuous
 62
     2
100
AcDbLine
 10
53.16974534091932
 20
166.3254883351333
 30
0.0
 11
53.16974534091932
 21
167.0590029699078
 31
0.0
  0
LINE
  5
E4
330
1F
100
AcDbEntity
  8
0
  6
Continuous
 62
     2
100
AcDbLine
 10
86.36974534091937
 20
170.8254883351333
 30
0.0
 11
53.16974534091932
 21
170.8254883351333
 31
0.0
  0
LINE
  5
E5
330
1F
100
AcDbEntity
  8
0
  6
Continuous
 62
     2
100
AcDbLine
 10
53.16974534091932
 20
170.8254883351333
 30
0.0
 11
47.10958216962226
 21
170.8254883351333
 31
0.0
  0
LINE
  5
E6
330
1F
100
AcDbEntity
  8
0
  6
Continuous
 62
     2
100
AcDbLine
 10
53.16974534091932
 20
170.6590029699077
 30
0.0
 11
46.92990851221643
 21
170.6590029699077
 31
0.0
  0
LINE
  5
E7
330
1F
100
AcDbEntity
  8
0
  6
Continuous
 62
     7
100
AcDbLine
 10
47.10958216962226
 20
169.7590029699076
 30
0.0
 11
46.92990851221643
 21
169.9254883351334
 31
0.0
  0
LINE
  5
E8
330
1F
100
AcDbEntity
  8
0
  6
Continuous
 62
     2
100
AcDbLine
 10
53.16974534091932
 20
169.7590029699076
 30
0.0
 11
47.10958216962226
 21
169.7590029699076
 31
0.0
  0
LINE
  5
E9
330
1F
100
AcDbEntity
  8
0
  6
Continuous
 62
     2
100
AcDbLine
 10
53.16974534091932
 20
168.8590029699078
 30
0.0
 11
46.92990851221643
 21
168.8590029699078
 31
0.0
  0
LINE
  5
EA
330
1F
100
AcDbEntity
  8
0
  6
Continuous
 62
     2
100
AcDbLine
 10
53.16974534091932
 20
169.0254883351333
 30
0.0
 11
47.10958216962226
 21
169.0254883351333
 31
0.0
  0
LINE
  5
EB
330
1F
100
AcDbEntity
  8
0
  6
Continuous
 62
     2
100
AcDbLine
 10
53.16974534091932
 20
169.9254883351334
 30
0.0
 11
46.92990851221643
 21
169.9254883351334
 31
0.0
  0
LINE
  5
EC
330
1F
100
AcDbEntity
  8
0
  6
Continuous
 62
     7
100
AcDbLine
 10
46.76974534091923
 20
170.2922456525205
 30
0.0
 11
46.76974534091923
 21
168.4922456525205
 31
0.0
  0
LINE
  5
ED
330
1F
100
AcDbEntity
  8
0
  6
Continuous
 62
     7
100
AcDbLine
 10
47.10958216962226
 20
169.0254883351333
 30
0.0
 11
46.92990851221643
 21
168.8590029699078
 31
0.0
  0
LINE
  5
EE
330
1F
100
AcDbEntity
  8
0
  6
Continuous
 62
     2
100
AcDbLine
 10
86.36974534091937
 20
164.8922456525206
 30
0.0
 11
53.16974534091932
 21
164.8922456525206
 31
0.0
  0
LINE
  5
EF
330
1F
100
AcDbEntity
  8
0
  6
Continuous
 62
     2
100
AcDbLine
 10
86.36974534091937
 20
165.2590029699076
 30
0.0
 11
53.16974534091932
 21
165.2590029699076
 31
0.0
  0
LINE
  5
F0
330
1F
100
AcDbEntity
  8
0
  6
Continuous
 62
     2
100
AcDbLine
 10
86.36974534091937
 20
165.4254883351334
 30
0.0
 11
53.16974534091932
 21
165.4254883351334
 31
0.0
  0
LINE
  5
F1
330
1F
100
AcDbEntity
  8
0
  6
Continuous
 62
     2
100
AcDbLine
 10
86.36974534091937
 20
166.1590029699077
 30
0.0
 11
53.16974534091932
 21
166.1590029699077
 31
0.0
  0
LINE
  5
F2
330
1F
100
AcDbEntity
  8
0
  6
Continuous
 62
     2
100
AcDbLine
 10
86.36974534091937
 20
166.3254883351333
 30
0.0
 11
53.16974534091932
 21
166.3254883351333
 31
0.0
  0
LINE
  5
F3
330
1F
100
AcDbEntity
  8
0
  6
Continuous
 62
     7
100
AcDbLine
 10
46.76974534091923
 20
166.6922456525205
 30
0.0
 11
46.76974534091923
 21
164.8922456525206
 31
0.0
  0
LINE
  5
F4
330
1F
100
AcDbEntity
  8
0
  6
Continuous
 62
     2
100
AcDbLine
 10
68.16985635952332
 20
192.2066151069216
 30
0.0
 11
69.46980085022128
 21
191.4566471315188
 31
0.0
  0
LINE
  5
F5
330
1F
100
AcDbEntity
  8
0
  6
Continuous
 62
     2
100
AcDbLine
 10
69.66968983161732
 20
191.8031213659383
 30
0.0
 11
68.36974534091937
 21
192.5530893413411
 31
0.0
  0
LINE
  5
F6
330
1F
100
AcDbEntity
  8
0
  6
Continuous
 62
     2
100
AcDbLine
 10
86.36974534091937
 20
172.0922456525206
 30
0.0
 11
86.36974534091937
 21
180.8922456525206
 31
0.0
  0
LINE
  5
F7
330
1F
100
AcDbEntity
  8
0
  6
Continuous
 62
     2
100
AcDbLine
 10
68.36974534091937
 20
192.5530893413411
 30
0.0
 11
68.36974534091937
 21
195.3445767486219
 31
0.0
  0
LINE
  5
F8
330
1F
100
AcDbEntity
  8
0
  6
Continuous
 62
     7
100
AcDbLine
 10
90.3711695599853
 20
186.8922456525206
 30
0.0
 11
86.61988086594928
 21
200.8922456525206
 31
0.0
  0
LINE
  5
F9
330
1F
100
AcDbEntity
  8
0
  6
Continuous
 62
     7
100
AcDbLine
 10
47.10958216962226
 20
166.1590029699077
 30
0.0
 11
46.92990851221643
 21
166.3254883351333
 31
0.0
  0
LINE
  5
FA
330
1F
100
AcDbEntity
  8
0
  6
Continuous
 62
     2
100
AcDbLine
 10
53.16974534091932
 20
165.2590029699076
 30
0.0
 11
46.9299085122162
 21
165.2590029699077
 31
0.0
  0
LINE
  5
FB
330
1F
100
AcDbEntity
  8
0
  6
Continuous
 62
     2
100
AcDbLine
 10
53.16974534091932
 20
165.4254883351334
 30
0.0
 11
47.10958216962226
 21
165.4254883351334
 31
0.0
  0
LINE
  5
FC
330
1F
100
AcDbEntity
  8
0
  6
Continuous
 62
     7
100
AcDbLine
 10
47.10958216962226
 20
165.4254883351334
 30
0.0
 11
46.9299085122162
 21
165.2590029699077
 31
0.0
  0
LINE
  5
FD
330
1F
100
AcDbEntity
  8
0
  6
Continuous
 62
     2
100
AcDbLine
 10
53.16974534091932
 20
166.1590029699077
 30
0.0
 11
47.10958216962226
 21
166.1590029699077
 31
0.0
  0
LINE
  5
FE
330
1F
100
AcDbEntity
  8
0
  6
Continuous
 62
     7
100
AcDbLine
 10
46.76974534091923
 20
157.8922456525206
 30
0.0
 11
46.76974534091923
 21
164.8922456525206
 31
0.0
  0
LINE
  5
FF
330
1F
100
AcDbEntity
  8
0
  6
Continuous
 62
     2
100
AcDbLine
 10
53.16974534091932
 20
166.3254883351333
 30
0.0
 11
46.92990851221643
 21
166.3254883351333
 31
0.0
  0
LINE
  5
100
330
1F
100
AcDbEntity
  8
0
  6
Continuous
 62
     7
100
AcDbLine
 10
46.76974534091923
 20
157.8922456525206
 30
0.0
 11
45.76974534091923
 21
157.8922456525206
 31
0.0
  0
LINE
  5
101
330
1F
100
AcDbEntity
  8
0
  6
Continuous
 62
     7
100
AcDbLine
 10
53.16974534091932
 20
157.8922456525206
 30
0.0
 11
46.76974534091923
 21
157.8922456525206
 31
0.0
  0
LINE
  5
102
330
1F
100
AcDbEntity
  8
0
  6
Continuous
 62
     2
100
AcDbLine
 10
53.16974534091932
 20
164.8922456525206
 30
0.0
 11
46.76974534091923
 21
164.8922456525206
 31
0.0
  0
LINE
  5
103
330
1F
100
AcDbEntity
  8
0
  6
Continuous
 62
     7
100
AcDbLine
 10
53.16974534091932
 20
152.8922456525206
 30
0.0
 11
45.76974534091923
 21
152.8922456525206
 31
0.0
  0
LINE
  5
104
330
1F
100
AcDbEntity
  8
0
  6
Continuous
 62
     7
100
AcDbLine
 10
45.76974534091923
 20
157.8922456525206
 30
0.0
 11
45.76974534091923
 21
152.8922456525206
 31
0.0
  0
LINE
  5
105
330
1F
100
AcDbEntity
  8
0
  6
Continuous
 62
     2
100
AcDbLine
 10
53.16974534091932
 20
164.8922456525206
 30
0.0
 11
53.16974534091932
 21
165.2590029699076
 31
0.0
  0
LINE
  5
106
330
1F
100
AcDbEntity
  8
0
  6
Continuous
 62
     2
100
AcDbLine
 10
53.16974534091932
 20
165.4254883351334
 30
0.0
 11
53.16974534091932
 21
165.2590029699076
 31
0.0
  0
LINE
  5
107
330
1F
100
AcDbEntity
  8
0
  6
Continuous
 62
     2
100
AcDbLine
 10
53.16974534091932
 20
166.1590029699077
 30
0.0
 11
53.16974534091932
 21
165.4254883351334
 31
0.0
  0
LINE
  5
108
330
1F
100
AcDbEntity
  8
0
  6
Continuous
 62
     2
100
AcDbLine
 10
53.16974534091932
 20
166.1590029699077
 30
0.0
 11
53.16974534091932
 21
166.3254883351333
 31
0.0
  0
LINE
  5
109
330
1F
100
AcDbEntity
  8
0
  6
Continuous
 62
     7
100
AcDbLine
 10
71.76974534091923
 20
157.8922456525206
 30
0.0
 11
71.76974534091923
 21
161.3922456525206
 31
0.0
  0
LINE
  5
10A
330
1F
100
AcDbEntity
  8
0
  6
Continuous
 62
     7
100
AcDbLine
 10
67.76974534091923
 20
161.3922456525206
 30
0.0
 11
67.76974534091923
 21
157.8922456525206
 31
0.0
  0
LINE
  5
10B
330
1F
100
AcDbEntity
  8
0
  6
Continuous
 62
     7
100
AcDbLine
 10
67.76974534091923
 20
161.3922456525206
 30
0.0
 11
71.76974534091923
 21
161.3922456525206
 31
0.0
  0
LINE
  5
10C
330
1F
100
AcDbEntity
  8
0
  6
Continuous
 62
     7
100
AcDbLine
 10
66.24373271638532
 20
157.8922456525206
 30
0.0
 11
67.35493077519627
 21
162.0392932652769
 31
0.0
  0
LINE
  5
10D
330
1F
100
AcDbEntity
  8
0
  6
Continuous
 62
     7
100
AcDbLine
 10
67.76974534091923
 20
157.8922456525206
 30
0.0
 11
71.76974534091923
 21
157.8922456525206
 31
0.0
  0
LINE
  5
10E
330
1F
100
AcDbEntity
  8
0
  6
Continuous
 62
     7
100
AcDbLine
 10
72.18455990664128
 20
162.0392932652769
 30
0.0
 11
73.29575796545336
 21
157.8922456525206
 31
0.0
  0
LINE
  5
10F
330
1F
100
AcDbEntity
  8
0
  6
Continuous
 62
     7
100
AcDbLine
 10
53.16974534091932
 20
152.8922456525206
 30
0.0
 11
86.36974534091937
 21
152.8922456525206
 31
0.0
  0
LINE
  5
110
330
1F
100
AcDbEntity
  8
0
  6
Continuous
 62
     2
100
AcDbLine
 10
53.16974534091932
 20
157.8922456525206
 30
0.0
 11
53.16974534091932
 21
152.8922456525206
 31
0.0
  0
LINE
  5
111
330
1F
100
AcDbEntity
  8
0
  6
Continuous
 62
     2
100
AcDbLine
 10
53.16974534091932
 20
157.8922456525206
 30
0.0
 11
53.16974534091932
 21
164.8922456525206
 31
0.0
  0
LINE
  5
112
330
1F
100
AcDbEntity
  8
0
  6
Continuous
 62
     7
100
AcDbLine
 10
53.16974534091932
 20
157.8922456525206
 30
0.0
 11
66.24373271638532
 21
157.8922456525206
 31
0.0
  0
LINE
  5
113
330
1F
100
AcDbEntity
  8
0
  6
Continuous
 62
     2
100
AcDbLine
 10
86.36974534091937
 20
171.7254883351334
 30
0.0
 11
92.60958216962226
 21
171.7254883351334
 31
0.0
  0
LINE
  5
114
330
1F
100
AcDbEntity
  8
0
  6
Continuous
 62
     2
100
AcDbLine
 10
86.36974534091937
 20
172.0922456525206
 30
0.0
 11
86.36974534091937
 21
171.7254883351334
 31
0.0
  0
LINE
  5
115
330
1F
100
AcDbEntity
  8
0
  6
Continuous
 62
     7
100
AcDbLine
 10
53.16974534091932
 20
180.8922456525206
 30
0.0
 11
86.36974534091937
 21
180.8922456525206
 31
0.0
  0
LINE
  5
116
330
1F
100
AcDbEntity
  8
0
  6
Continuous
 62
     2
100
AcDbLine
 10
86.36974534091937
 20
167.2254883351334
 30
0.0
 11
86.36974534091937
 21
167.0590029699078
 31
0.0
  0
LINE
  5
117
330
1F
100
AcDbEntity
  8
0
  6
Continuous
 62
     2
100
AcDbLine
 10
86.36974534091937
 20
167.0590029699078
 30
0.0
 11
86.36974534091937
 21
166.3254883351333
 31
0.0
  0
LINE
  5
118
330
1F
100
AcDbEntity
  8
0
  6
Continuous
 62
     7
100
AcDbLine
 10
86.36974534091937
 20
180.8922456525206
 30
0.0
 11
89.44955744574426
 21
180.8922456525206
 31
0.0
  0
LINE
  5
119
330
1F
100
AcDbEntity
  8
0
  6
Continuous
 62
     2
100
AcDbLine
 10
86.36974534091937
 20
167.9590029699077
 30
0.0
 11
86.36974534091937
 21
168.1254883351334
 31
0.0
  0
LINE
  5
11A
330
1F
100
AcDbEntity
  8
0
  6
Continuous
 62
     2
100
AcDbLine
 10
86.36974534091937
 20
167.9590029699077
 30
0.0
 11
92.42990851221643
 21
167.9590029699077
 31
0.0
  0
LINE
  5
11B
330
1F
100
AcDbEntity
  8
0
  6
Continuous
 62
     7
100
AcDbLine
 10
92.42990851221643
 20
167.9590029699077
 30
0.0
 11
92.60958216962226
 21
168.1254883351334
 31
0.0
  0
LINE
  5
11C
330
1F
100
AcDbEntity
  8
0
  6
Continuous
 62
     2
100
AcDbLine
 10
86.36974534091937
 20
167.2254883351334
 30
0.0
 11
92.42990851221643
 21
167.2254883351334
 31
0.0
  0
LINE
  5
11D
330
1F
100
AcDbEntity
  8
0
  6
Continuous
 62
     2
100
AcDbLine
 10
86.36974534091937
 20
167.0590029699078
 30
0.0
 11
92.60958216962226
 21
167.0590029699078
 31
0.0
  0
LINE
  5
11E
330
1F
100
AcDbEntity
  8
0
  6
Continuous
 62
     7
100
AcDbLine
 10
92.42990851221643
 20
167.2254883351334
 30
0.0
 11
92.60958216962226
 21
167.0590029699078
 31
0.0
  0
LINE
  5
11F
330
1F
100
AcDbEntity
  8
0
  6
Continuous
 62
     2
100
AcDbLine
 10
86.36974534091937
 20
167.2254883351334
 30
0.0
 11
86.36974534091937
 21
167.9590029699077
 31
0.0
  0
LINE
  5
120
330
1F
100
AcDbEntity
  8
0
  6
Continuous
 62
     2
100
AcDbLine
 10
86.36974534091937
 20
169.7590029699076
 30
0.0
 11
86.36974534091937
 21
169.9254883351334
 31
0.0
  0
LINE
  5
121
330
1F
100
AcDbEntity
  8
0
  6
Continuous
 62
     2
100
AcDbLine
 10
86.36974534091937
 20
169.0254883351333
 30
0.0
 11
86.36974534091937
 21
168.8590029699078
 31
0.0
  0
LINE
  5
122
330
1F
100
AcDbEntity
  8
0
  6
Continuous
 62
     2
100
AcDbLine
 10
86.36974534091937
 20
169.0254883351333
 30
0.0
 11
86.36974534091937
 21
169.7590029699076
 31
0.0
  0
LINE
  5
123
330
1F
100
AcDbEntity
  8
0
  6
Continuous
 62
     2
100
AcDbLine
 10
86.36974534091937
 20
169.7590029699076
 30
0.0
 11
92.42990851221643
 21
169.7590029699076
 31
0.0
  0
LINE
  5
124
330
1F
100
AcDbEntity
  8
0
  6
Continuous
 62
     2
100
AcDbLine
 10
86.36974534091937
 20
169.9254883351334
 30
0.0
 11
92.60958216962226
 21
169.9254883351334
 31
0.0
  0
LINE
  5
125
330
1F
100
AcDbEntity
  8
0
  6
Continuous
 62
     2
100
AcDbLine
 10
86.36974534091937
 20
169.0254883351333
 30
0.0
 11
92.42990851221643
 21
169.0254883351333
 31
0.0
  0
LINE
  5
126
330
1F
100
AcDbEntity
  8
0
  6
Continuous
 62
     2
100
AcDbLine
 10
86.36974534091937
 20
168.8590029699078
 30
0.0
 11
86.36974534091937
 21
168.1254883351334
 31
0.0
  0
LINE
  5
127
330
1F
100
AcDbEntity
  8
0
  6
Continuous
 62
     2
100
AcDbLine
 10
86.36974534091937
 20
168.8590029699078
 30
0.0
 11
92.60958216962226
 21
168.8590029699078
 31
0.0
  0
LINE
  5
128
330
1F
100
AcDbEntity
  8
0
  6
Continuous
 62
     2
100
AcDbLine
 10
86.36974534091937
 20
168.1254883351334
 30
0.0
 11
92.60958216962226
 21
168.1254883351334
 31
0.0
  0
LINE
  5
129
330
1F
100
AcDbEntity
  8
0
  6
Continuous
 62
     7
100
AcDbLine
 10
92.42990851221643
 20
169.7590029699076
 30
0.0
 11
92.60958216962226
 21
169.9254883351334
 31
0.0
  0
LINE
  5
12A
330
1F
100
AcDbEntity
  8
0
  6
Continuous
 62
     7
100
AcDbLine
 10
92.76974534091923
 20
180.8922456525206
 30
0.0
 11
92.76974534091923
 21
172.0922456525206
 31
0.0
  0
LINE
  5
12B
330
1F
100
AcDbEntity
  8
0
  6
Continuous
 62
     7
100
AcDbLine
 10
92.42990851221643
 20
169.0254883351333
 30
0.0
 11
92.60958216962226
 21
168.8590029699078
 31
0.0
  0
LINE
  5
12C
330
1F
100
AcDbEntity
  8
0
  6
Continuous
 62
     2
100
AcDbLine
 10
86.36974534091937
 20
171.5590029699078
 30
0.0
 11
92.42990851221643
 21
171.5590029699078
 31
0.0
  0
LINE
  5
12D
330
1F
100
AcDbEntity
  8
0
  6
Continuous
 62
     7
100
AcDbLine
 10
92.42990851221643
 20
171.5590029699078
 30
0.0
 11
92.60958216962226
 21
171.7254883351334
 31
0.0
  0
LINE
  5
12E
330
1F
100
AcDbEntity
  8
0
  6
Continuous
 62
     7
100
AcDbLine
 10
86.36974534091937
 20
152.8922456525206
 30
0.0
 11
93.76974534091923
 21
152.8922456525206
 31
0.0
  0
LINE
  5
12F
330
1F
100
AcDbEntity
  8
0
  6
Continuous
 62
     7
100
AcDbLine
 10
92.76974534091923
 20
157.8922456525206
 30
0.0
 11
93.76974534091923
 21
157.8922456525206
 31
0.0
  0
LINE
  5
130
330
1F
100
AcDbEntity
  8
0
  6
Continuous
 62
     7
100
AcDbLine
 10
93.76974534091923
 20
152.8922456525206
 30
0.0
 11
93.76974534091923
 21
157.8922456525206
 31
0.0
  0
LINE
  5
131
330
1F
100
AcDbEntity
  8
0
  6
Continuous
 62
     7
100
AcDbLine
 10
92.76974534091923
 20
164.8922456525206
 30
0.0
 11
92.76974534091923
 21
166.6922456525205
 31
0.0
  0
LINE
  5
132
330
1F
100
AcDbEntity
  8
0
  6
Continuous
 62
     7
100
AcDbLine
 10
73.29575796545336
 20
157.8922456525206
 30
0.0
 11
86.36974534091937
 21
157.8922456525206
 31
0.0
  0
LINE
  5
133
330
1F
100
AcDbEntity
  8
0
  6
Continuous
 62
     2
100
AcDbLine
 10
86.36974534091937
 20
166.3254883351333
 30
0.0
 11
92.60958216962226
 21
166.3254883351333
 31
0.0
  0
LINE
  5
134
330
1F
100
AcDbEntity
  8
0
  6
Continuous
 62
     2
100
AcDbLine
 10
86.36974534091937
 20
166.1590029699077
 30
0.0
 11
92.42990851221643
 21
166.1590029699077
 31
0.0
  0
LINE
  5
135
330
1F
100
AcDbEntity
  8
0
  6
Continuous
 62
     2
100
AcDbLine
 10
86.36974534091937
 20
165.4254883351334
 30
0.0
 11
92.42990851221643
 21
165.4254883351334
 31
0.0
  0
LINE
  5
136
330
1F
100
AcDbEntity
  8
0
  6
Continuous
 62
     2
100
AcDbLine
 10
86.36974534091937
 20
165.2590029699076
 30
0.0
 11
92.60958216962226
 21
165.2590029699076
 31
0.0
  0
LINE
  5
137
330
1F
100
AcDbEntity
  8
0
  6
Continuous
 62
     2
100
AcDbLine
 10
86.36974534091937
 20
165.2590029699076
 30
0.0
 11
86.36974534091937
 21
164.8922456525206
 31
0.0
  0
LINE
  5
138
330
1F
100
AcDbEntity
  8
0
  6
Continuous
 62
     2
100
AcDbLine
 10
86.36974534091937
 20
165.4254883351334
 30
0.0
 11
86.36974534091937
 21
165.2590029699076
 31
0.0
  0
LINE
  5
139
330
1F
100
AcDbEntity
  8
0
  6
Continuous
 62
     2
100
AcDbLine
 10
86.36974534091937
 20
166.1590029699077
 30
0.0
 11
86.36974534091937
 21
166.3254883351333
 31
0.0
  0
LINE
  5
13A
330
1F
100
AcDbEntity
  8
0
  6
Continuous
 62
     2
100
AcDbLine
 10
86.36974534091937
 20
165.4254883351334
 30
0.0
 11
86.36974534091937
 21
166.1590029699077
 31
0.0
  0
LINE
  5
13B
330
1F
100
AcDbEntity
  8
0
  6
Continuous
 62
     7
100
AcDbLine
 10
86.36974534091937
 20
157.8922456525206
 30
0.0
 11
92.76974534091923
 21
157.8922456525206
 31
0.0
  0
LINE
  5
13C
330
1F
100
AcDbEntity
  8
0
  6
Continuous
 62
     2
100
AcDbLine
 10
92.76974534091923
 20
164.8922456525206
 30
0.0
 11
86.36974534091937
 21
164.8922456525206
 31
0.0
  0
LINE
  5
13D
330
1F
100
AcDbEntity
  8
0
  6
Continuous
 62
     2
100
AcDbLine
 10
86.36974534091937
 20
152.8922456525206
 30
0.0
 11
86.36974534091937
 21
157.8922456525206
 31
0.0
  0
LINE
  5
13E
330
1F
100
AcDbEntity
  8
0
  6
Continuous
 62
     2
100
AcDbLine
 10
86.36974534091937
 20
164.8922456525206
 30
0.0
 11
86.36974534091937
 21
157.8922456525206
 31
0.0
  0
LINE
  5
13F
330
1F
100
AcDbEntity
  8
0
  6
Continuous
 62
     7
100
AcDbLine
 10
92.76974534091923
 20
164.8922456525206
 30
0.0
 11
92.76974534091923
 21
157.8922456525206
 31
0.0
  0
LINE
  5
140
330
1F
100
AcDbEntity
  8
0
  6
Continuous
 62
     7
100
AcDbLine
 10
92.42990851221643
 20
166.1590029699077
 30
0.0
 11
92.60958216962226
 21
166.3254883351333
 31
0.0
  0
LINE
  5
141
330
1F
100
AcDbEntity
  8
0
  6
Continuous
 62
     7
100
AcDbLine
 10
92.42990851221643
 20
165.4254883351334
 30
0.0
 11
92.60958216962226
 21
165.2590029699076
 31
0.0
  0
LINE
  5
142
330
1F
100
AcDbEntity
  8
0
  6
Continuous
 62
     2
100
AcDbLine
 10
50.08993323609442
 20
181.6922456525205
 30
0.0
 11
89.44955744574426
 21
181.6922456525205
 31
0.0
  0
LINE
  5
143
330
1F
100
AcDbEntity
  8
0
  6
Continuous
 62
     7
100
AcDbLine
 10
92.4999057036774
 20
181.8993008886025
 30
0.0
 11
92.00199602605639
 21
183.7575251030648
 31
0.0
  0
LINE
  5
144
330
1F
100
AcDbEntity
  8
0
  6
Continuous
 62
     7
100
AcDbLine
 10
51.2153198443053
 20
185.8922456525206
 30
0.0
 11
88.32417083753339
 21
185.8922456525206
 31
0.0
  0
LINE
  5
145
330
1F
100
AcDbEntity
  8
0
  6
Continuous
 62
     7
100
AcDbLine
 10
89.44955744574426
 20
180.8922456525206
 30
0.0
 11
91.7271650426463
 21
180.8922456525206
 31
0.0
  0
LINE
  5
146
330
1F
100
AcDbEntity
  8
0
  6
Continuous
 62
     2
100
AcDbLine
 10
89.44955744574426
 20
181.6922456525205
 30
0.0
 11
88.32417083753339
 21
185.8922456525206
 31
0.0
  0
LINE
  5
147
330
1F
100
AcDbEntity
  8
0
  6
Continuous
 62
     7
100
AcDbLine
 10
46.76974534091923
 20
180.8922456525206
 30
0.0
 11
47.03958497816038
 21
181.8993008886025
 31
0.0
  0
LINE
  5
148
330
1F
100
AcDbEntity
  8
0
  6
Continuous
 62
     7
100
AcDbLine
 10
92.4999057036774
 20
181.8993008886025
 30
0.0
 11
92.76974534091923
 21
180.8922456525206
 31
0.0
  0
LINE
  5
149
330
1F
100
AcDbEntity
  8
0
  6
Continuous
 62
     2
100
AcDbLine
 10
69.16974534091932
 20
192.8996276961011
 30
0.0
 11
69.16974534091932
 21
194.9303071370627
 31
0.0
  0
LINE
  5
14A
330
1F
100
AcDbEntity
  8
0
  6
Continuous
 62
     2
100
AcDbLine
 10
68.76974534091923
 20
195.8298070397422
 30
0.0
 11
68.76974534091923
 21
192.8996276961011
 31
0.0
  0
LINE
  5
14B
330
1F
100
AcDbEntity
  8
0
  6
Continuous
 62
     2
100
AcDbLine
 10
71.16974534091932
 20
195.3445767486219
 30
0.0
 11
71.16974534091932
 21
192.4375765564209
 31
0.0
  0
LINE
  5
14C
330
1F
100
AcDbEntity
  8
0
  6
Continuous
 62
     2
100
AcDbLine
 10
70.76974534091832
 20
191.9760380948826
 30
0.0
 11
70.76974534091923
 21
195.8298070397422
 31
0.0
  0
LINE
  5
14D
330
1F
100
AcDbEntity
  8
0
  6
Continuous
 62
     2
100
AcDbLine
 10
69.16974534091932
 20
194.9303071370627
 30
0.0
 11
69.68314280054037
 21
194.0410766525215
 31
0.0
  0
LINE
  5
14E
330
1F
100
AcDbEntity
  8
0
  6
Continuous
 62
     2
100
AcDbLine
 10
70.47308513074526
 20
195.9092969034848
 30
0.0
 11
69.76974534091923
 21
194.6910766525213
 31
0.0
  0
LINE
  5
14F
330
1F
100
AcDbEntity
  8
0
  6
Continuous
 62
     2
100
AcDbLine
 10
69.76974534091923
 20
194.6910766525213
 30
0.0
 11
69.06640555109342
 21
195.9092969034848
 31
0.0
  0
LINE
  5
150
330
1F
100
AcDbEntity
  8
0
  6
Continuous
 62
     2
100
AcDbLine
 10
70.36974534091937
 20
194.9303071370627
 30
0.0
 11
70.36974534091937
 21
191.9760380948826
 31
0.0
  0
LINE
  5
151
330
1F
100
AcDbEntity
  8
0
  6
Continuous
 62
     2
100
AcDbLine
 10
71.56974534091941
 20
193.6910766525213
 30
0.0
 11
72.16974534091932
 21
193.6910766525213
 31
0.0
  0
LINE
  5
152
330
1F
100
AcDbEntity
  8
0
  6
Continuous
 62
     2
100
AcDbLine
 10
71.56974534091941
 20
192.7838585721101
 30
0.0
 11
71.56974534091941
 21
193.6910766525213
 31
0.0
  0
LINE
  5
153
330
1F
100
AcDbEntity
  8
0
  6
Continuous
 62
     2
100
AcDbLine
 10
72.06980085022141
 20
193.072352135169
 30
0.0
 11
71.56974534091941
 21
192.7838585721101
 31
0.0
  0
LINE
  5
154
330
1F
100
AcDbEntity
  8
0
  6
Continuous
 62
     2
100
AcDbLine
 10
71.46968983161636
 20
192.2643394392112
 30
0.0
 11
72.26968983161723
 21
192.7258779007497
 31
0.0
  0
LINE
  5
155
330
1F
100
AcDbEntity
  8
0
  6
Continuous
 62
     2
100
AcDbLine
 10
74.8196065060034
 20
193.8044580939165
 30
0.0
 11
69.76974534091923
 21
190.8910766525214
 31
0.0
  0
LINE
  5
156
330
1F
100
AcDbEntity
  8
0
  6
Continuous
 62
     2
100
AcDbLine
 10
69.76974534091923
 20
190.6601792522167
 30
0.0
 11
74.9195509967013
 21
193.6312209767068
 31
0.0
  0
LINE
  5
157
330
1F
100
AcDbEntity
  8
0
  6
Continuous
 62
     2
100
AcDbLine
 10
69.85634788129741
 20
194.0410766525215
 30
0.0
 11
70.36974534091937
 21
194.9303071370627
 31
0.0
  0
LINE
  5
158
330
1F
100
AcDbEntity
  8
0
  6
Continuous
 62
     2
100
AcDbLine
 10
71.56974534091941
 20
194.9982947329326
 30
0.0
 11
72.06980085022141
 21
194.7098011698738
 31
0.0
  0
LINE
  5
159
330
1F
100
AcDbEntity
  8
0
  6
Continuous
 62
     2
100
AcDbLine
 10
71.56974534091941
 20
194.0910766525214
 30
0.0
 11
71.56974534091941
 21
194.9982947329326
 31
0.0
  0
LINE
  5
15A
330
1F
100
AcDbEntity
  8
0
  6
Continuous
 62
     2
100
AcDbLine
 10
72.16974534091932
 20
194.0910766525214
 30
0.0
 11
71.56974534091941
 21
194.0910766525214
 31
0.0
  0
LINE
  5
15B
330
1F
100
AcDbEntity
  8
0
  6
Continuous
 62
     2
100
AcDbLine
 10
72.26968983161723
 20
195.0562754042933
 30
0.0
 11
71.46968983161636
 21
195.5178138658316
 31
0.0
  0
LINE
  5
15C
330
1F
100
AcDbEntity
  8
0
  6
Continuous
 62
     2
100
AcDbLine
 10
69.76974534091923
 20
196.8910766525214
 30
0.0
 11
74.8196065060034
 21
193.9776952111263
 31
0.0
  0
LINE
  5
15D
330
1F
100
AcDbEntity
  8
0
  6
Continuous
 62
     2
100
AcDbLine
 10
74.9195509967013
 20
194.150932328336
 30
0.0
 11
69.76974534091923
 21
197.1219740528261
 31
0.0
  0
LINE
  5
15E
330
1F
100
AcDbEntity
  8
0
  6
Continuous
 62
     2
100
AcDbLine
 10
83.5010853737734
 20
203.8922456525206
 30
0.0
 11
83.5010853737734
 21
206.8922456525206
 31
0.0
  0
LINE
  5
15F
330
1F
100
AcDbEntity
  8
0
  6
Continuous
 62
     2
100
AcDbLine
 10
84.03698375863527
 20
201.8922456525206
 30
0.0
 11
83.5010853737734
 21
203.8922456525206
 31
0.0
  0
LINE
  5
160
330
1F
100
AcDbEntity
  8
0
  6
Continuous
 62
     2
100
AcDbLine
 10
83.5010853737734
 20
203.8922456525206
 30
0.0
 11
86.39886285264024
 21
204.6687027878281
 31
0.0
  0
LINE
  5
161
330
1F
100
AcDbEntity
  8
0
  6
Continuous
 62
     7
100
AcDbLine
 10
86.40712655690479
 20
204.3615307988034
 30
0.0
 11
87.92509815255104
 21
204.7682700619902
 31
0.0
  0
LINE
  5
162
330
1F
100
AcDbEntity
  8
0
  6
Continuous
 62
     7
100
AcDbLine
 10
96.85551540944934
 20
208.1446805254386
 30
0.0
 11
97.10139350229676
 21
207.227050990464
 31
0.0
  0
LINE
  5
163
330
1F
100
AcDbEntity
  8
0
  6
Continuous
 62
     7
100
AcDbLine
 10
50.08993323609442
 20
180.8922456525206
 30
0.0
 11
53.16974534091932
 21
180.8922456525206
 31
0.0
  0
LINE
  5
164
330
1F
100
AcDbEntity
  8
0
  6
Continuous
 62
     7
100
AcDbLine
 10
47.81232563919238
 20
180.8922456525206
 30
0.0
 11
50.08993323609442
 21
180.8922456525206
 31
0.0
  0
LINE
  5
165
330
1F
100
AcDbEntity
  8
0
  6
Continuous
 62
     7
100
AcDbLine
 10
46.76974534091923
 20
172.0922456525206
 30
0.0
 11
46.76974534091923
 21
180.8922456525206
 31
0.0
  0
LINE
  5
166
330
1F
100
AcDbEntity
  8
0
  6
Continuous
 62
     2
100
AcDbLine
 10
53.16974534091932
 20
172.0922456525206
 30
0.0
 11
53.16974534091932
 21
180.8922456525206
 31
0.0
  0
LINE
  5
167
330
1F
100
AcDbEntity
  8
0
  6
Continuous
 62
     2
100
AcDbLine
 10
67.56974534091941
 20
192.8991150179595
 30
0.0
 11
67.56974534091941
 21
194.8830382870835
 31
0.0
  0
LINE
  5
168
330
1F
100
AcDbEntity
  8
0
  6
Continuous
 62
     2
100
AcDbLine
 10
67.16974534091932
 20
194.8830382870835
 30
0.0
 11
67.16974534091932
 21
192.8991150179595
 31
0.0
  0
LINE
  5
169
330
1F
100
AcDbEntity
  8
0
  6
Continuous
 62
     2
100
AcDbLine
 10
64.71988417583438
 20
193.9776952111263
 30
0.0
 11
69.76974534091923
 21
196.8910766525214
 31
0.0
  0
LINE
  5
16A
330
1F
100
AcDbEntity
  8
0
  6
Continuous
 62
     2
100
AcDbLine
 10
50.08993323609442
 20
181.6922456525205
 30
0.0
 11
51.2153198443053
 21
185.8922456525206
 31
0.0
  0
LINE
  5
16B
330
1F
100
AcDbEntity
  8
0
  6
Continuous
 62
     2
100
AcDbLine
 10
69.76974534091923
 20
190.8910766525214
 30
0.0
 11
64.71988417583438
 21
193.8044580939165
 31
0.0
  0
LINE
  5
16C
330
1F
100
AcDbEntity
  8
0
  6
Continuous
 62
     2
100
AcDbLine
 10
64.61993968513625
 20
193.6312209767068
 30
0.0
 11
69.76974534091923
 21
190.6601792522167
 31
0.0
  0
LINE
  5
16D
330
1F
100
AcDbEntity
  8
0
  6
Continuous
 62
     2
100
AcDbLine
 10
69.76974534091923
 20
197.1219740528261
 30
0.0
 11
64.61993968513625
 21
194.150932328336
 31
0.0
  0
LINE
  5
16E
330
1F
100
AcDbEntity
  8
0
  6
Continuous
 62
     7
100
AcDbLine
 10
49.16832112185224
 20
186.8922456525206
 30
0.0
 11
90.3711695599853
 21
186.8922456525206
 31
0.0
  0
LINE
  5
16F
330
1F
100
AcDbEntity
  8
0
  6
Continuous
 62
     7
100
AcDbLine
 10
47.03958497816038
 20
181.8993008886025
 30
0.0
 11
53.14062782919731
 21
204.6687027878281
 31
0.0
  0
LINE
  5
170
330
1F
100
AcDbEntity
  8
0
  6
Continuous
 62
     7
100
AcDbLine
 10
169.0697453409194
 20
161.3922456525206
 30
0.0
 11
169.0697453409194
 21
163.3922456525206
 31
0.0
  0
LINE
  5
171
330
1F
100
AcDbEntity
  8
0
  6
Continuous
 62
     2
100
AcDbLine
 10
165.9197453409193
 20
161.3922456525206
 30
0.0
 11
169.0697453409194
 21
161.3922456525206
 31
0.0
  0
LINE
  5
172
330
1F
100
AcDbEntity
  8
0
  6
Continuous
 62
     7
100
AcDbLine
 10
165.0447453409193
 20
157.8922456525206
 30
0.0
 11
165.9197453409193
 21
157.8922456525206
 31
0.0
  0
LINE
  5
173
330
1F
100
AcDbEntity
  8
0
  6
Continuous
 62
     7
100
AcDbLine
 10
165.9197453409193
 20
157.8922456525206
 30
0.0
 11
165.9197453409193
 21
161.3922456525206
 31
0.0
  0
LINE
  5
174
330
1F
100
AcDbEntity
  8
0
  6
Continuous
 62
     7
100
AcDbLine
 10
165.0447453409193
 20
157.8922456525206
 30
0.0
 11
165.0447453409193
 21
162.0392932652769
 31
0.0
  0
LINE
  5
175
330
1F
100
AcDbEntity
  8
0
  6
Continuous
 62
     2
100
AcDbLine
 10
165.9197453409193
 20
162.0392932652769
 30
0.0
 11
165.0447453409193
 21
162.0392932652769
 31
0.0
  0
LINE
  5
176
330
1F
100
AcDbEntity
  8
0
  6
Continuous
 62
     7
100
AcDbLine
 10
144.8197453409196
 20
157.8922456525206
 30
0.0
 11
158.5197453409192
 21
157.8922456525206
 31
0.0
  0
LINE
  5
177
330
1F
100
AcDbEntity
  8
0
  6
Continuous
 62
     7
100
AcDbLine
 10
158.6447453409192
 20
157.8922456525206
 30
0.0
 11
165.0447453409193
 21
157.8922456525206
 31
0.0
  0
LINE
  5
178
330
1F
100
AcDbEntity
  8
0
  6
Continuous
 62
     7
100
AcDbLine
 10
169.0697453409194
 20
161.3922456525206
 30
0.0
 11
165.9197453409193
 21
157.8922456525206
 31
0.0
  0
LINE
  5
179
330
1F
100
AcDbEntity
  8
0
  6
Continuous
 62
     7
100
AcDbLine
 10
165.9197453409193
 20
163.3922456525206
 30
0.0
 11
169.0697453409194
 21
163.3922456525206
 31
0.0
  0
LINE
  5
17A
330
1F
100
AcDbEntity
  8
0
  6
Continuous
 62
     7
100
AcDbLine
 10
137.4197453409196
 20
157.8922456525206
 30
0.0
 11
138.2947453409196
 21
157.8922456525206
 31
0.0
  0
LINE
  5
17B
330
1F
100
AcDbEntity
  8
0
  6
Continuous
 62
     7
100
AcDbLine
 10
138.2947453409196
 20
157.8922456525206
 30
0.0
 11
144.6947453409196
 21
157.8922456525206
 31
0.0
  0
LINE
  5
17C
330
1F
100
AcDbEntity
  8
0
  6
Continuous
 62
     2
100
AcDbLine
 10
144.6947453409196
 20
164.8922456525206
 30
0.0
 11
138.2947453409196
 21
164.8922456525206
 31
0.0
  0
LINE
  5
17D
330
1F
100
AcDbEntity
  8
0
  6
Continuous
 62
     7
100
AcDbLine
 10
140.4197453409196
 20
180.8922456525206
 30
0.0
 11
141.1935949386167
 21
180.8922456525206
 31
0.0
  0
LINE
  5
17E
330
1F
100
AcDbEntity
  8
0
  6
Continuous
 62
     2
100
AcDbLine
 10
140.4197453409196
 20
181.8993008886025
 30
0.0
 11
142.8559593482417
 21
181.8993008886025
 31
0.0
  0
LINE
  5
17F
330
1F
100
AcDbEntity
  8
0
  6
Continuous
 62
     2
100
AcDbLine
 10
144.8197453409196
 20
157.8922456525206
 30
0.0
 11
144.8197453409196
 21
152.8922456525206
 31
0.0
  0
LINE
  5
180
330
1F
100
AcDbEntity
  8
0
  6
Continuous
 62
     2
100
AcDbLine
 10
151.6697453409198
 20
204.6687027878281
 30
0.0
 11
140.4197453409196
 21
204.6687027878281
 31
0.0
  0
LINE
  5
181
330
1F
100
AcDbEntity
  8
0
  6
Continuous
 62
     7
100
AcDbLine
 10
146.4511896422617
 20
206.8922456525206
 30
0.0
 11
140.4197453409196
 21
206.8922456525206
 31
0.0
  0
LINE
  5
182
330
1F
100
AcDbEntity
  8
0
  6
Continuous
 62
     2
100
AcDbLine
 10
158.6447453409192
 20
180.8922456525206
 30
0.0
 11
158.6447453409192
 21
172.0922456525206
 31
0.0
  0
LINE
  5
183
330
1F
100
AcDbEntity
  8
0
  6
Continuous
 62
     7
100
AcDbLine
 10
158.6447453409192
 20
180.8922456525206
 30
0.0
 11
144.6947453409196
 21
180.8922456525206
 31
0.0
  0
LINE
  5
184
330
1F
100
AcDbEntity
  8
0
  6
Continuous
 62
     2
100
AcDbLine
 10
158.6447453409192
 20
172.0922456525206
 30
0.0
 11
153.1697453409193
 21
172.0922456525206
 31
0.0
  0
LINE
  5
185
330
1F
100
AcDbEntity
  8
0
  6
Continuous
 62
     2
100
AcDbLine
 10
158.6447453409192
 20
171.5590029699078
 30
0.0
 11
153.1697453409193
 21
171.5590029699078
 31
0.0
  0
LINE
  5
186
330
1F
100
AcDbEntity
  8
0
  6
Continuous
 62
     2
100
AcDbLine
 10
158.6447453409192
 20
170.8254883351333
 30
0.0
 11
153.1697453409193
 21
170.8254883351333
 31
0.0
  0
LINE
  5
187
330
1F
100
AcDbEntity
  8
0
  6
Continuous
 62
     2
100
AcDbLine
 10
158.6447453409192
 20
170.6590029699077
 30
0.0
 11
153.1697453409193
 21
170.6590029699077
 31
0.0
  0
LINE
  5
188
330
1F
100
AcDbEntity
  8
0
  6
Continuous
 62
     2
100
AcDbLine
 10
158.6447453409192
 20
169.9254883351334
 30
0.0
 11
153.1697453409193
 21
169.9254883351334
 31
0.0
  0
LINE
  5
189
330
1F
100
AcDbEntity
  8
0
  6
Continuous
 62
     2
100
AcDbLine
 10
158.6447453409192
 20
168.8590029699078
 30
0.0
 11
153.1697453409193
 21
168.8590029699078
 31
0.0
  0
LINE
  5
18A
330
1F
100
AcDbEntity
  8
0
  6
Continuous
 62
     2
100
AcDbLine
 10
158.6447453409192
 20
165.2590029699076
 30
0.0
 11
153.1697453409193
 21
165.2590029699076
 31
0.0
  0
LINE
  5
18B
330
1F
100
AcDbEntity
  8
0
  6
Continuous
 62
     2
100
AcDbLine
 10
158.6447453409192
 20
166.1590029699077
 30
0.0
 11
153.1697453409193
 21
166.1590029699077
 31
0.0
  0
LINE
  5
18C
330
1F
100
AcDbEntity
  8
0
  6
Continuous
 62
     2
100
AcDbLine
 10
158.6447453409192
 20
165.4254883351334
 30
0.0
 11
153.1697453409193
 21
165.4254883351334
 31
0.0
  0
LINE
  5
18D
330
1F
100
AcDbEntity
  8
0
  6
Continuous
 62
     2
100
AcDbLine
 10
158.6447453409192
 20
167.0590029699078
 30
0.0
 11
153.1697453409193
 21
167.0590029699078
 31
0.0
  0
LINE
  5
18E
330
1F
100
AcDbEntity
  8
0
  6
Continuous
 62
     2
100
AcDbLine
 10
158.6447453409192
 20
166.3254883351333
 30
0.0
 11
153.1697453409193
 21
166.3254883351333
 31
0.0
  0
LINE
  5
18F
330
1F
100
AcDbEntity
  8
0
  6
Continuous
 62
     2
100
AcDbLine
 10
158.6447453409192
 20
167.2254883351334
 30
0.0
 11
153.1697453409193
 21
167.2254883351334
 31
0.0
  0
LINE
  5
190
330
1F
100
AcDbEntity
  8
0
  6
Continuous
 62
     2
100
AcDbLine
 10
158.6447453409192
 20
164.8922456525206
 30
0.0
 11
153.1697453409193
 21
164.8922456525206
 31
0.0
  0
LINE
  5
191
330
1F
100
AcDbEntity
  8
0
  6
Continuous
 62
     2
100
AcDbLine
 10
158.6447453409192
 20
167.9590029699077
 30
0.0
 11
153.1697453409193
 21
167.9590029699077
 31
0.0
  0
LINE
  5
192
330
1F
100
AcDbEntity
  8
0
  6
Continuous
 62
     2
100
AcDbLine
 10
158.6447453409192
 20
168.1254883351334
 30
0.0
 11
153.1697453409193
 21
168.1254883351334
 31
0.0
  0
LINE
  5
193
330
1F
100
AcDbEntity
  8
0
  6
Continuous
 62
     2
100
AcDbLine
 10
158.6447453409192
 20
169.0254883351333
 30
0.0
 11
153.1697453409193
 21
169.0254883351333
 31
0.0
  0
LINE
  5
194
330
1F
100
AcDbEntity
  8
0
  6
Continuous
 62
     2
100
AcDbLine
 10
158.6447453409192
 20
169.7590029699076
 30
0.0
 11
153.1697453409193
 21
169.7590029699076
 31
0.0
  0
LINE
  5
195
330
1F
100
AcDbEntity
  8
0
  6
Continuous
 62
     2
100
AcDbLine
 10
158.6447453409192
 20
171.7254883351334
 30
0.0
 11
153.1697453409193
 21
171.7254883351334
 31
0.0
  0
LINE
  5
196
330
1F
100
AcDbEntity
  8
0
  6
Continuous
 62
     7
100
AcDbLine
 10
158.5197453409192
 20
157.8922456525206
 30
0.0
 11
158.6447453409192
 21
157.8922456525206
 31
0.0
  0
LINE
  5
197
330
1F
100
AcDbEntity
  8
0
  6
Continuous
 62
     2
100
AcDbLine
 10
144.6947453409196
 20
180.8922456525206
 30
0.0
 11
144.6947453409196
 21
172.0922456525206
 31
0.0
  0
LINE
  5
198
330
1F
100
AcDbEntity
  8
0
  6
Continuous
 62
     2
100
AcDbLine
 10
158.6447453409192
 20
170.8254883351333
 30
0.0
 11
158.6447453409192
 21
171.5590029699078
 31
0.0
  0
LINE
  5
199
330
1F
100
AcDbEntity
  8
0
  6
Continuous
 62
     2
100
AcDbLine
 10
158.6447453409192
 20
167.0590029699078
 30
0.0
 11
158.6447453409192
 21
166.3254883351333
 31
0.0
  0
LINE
  5
19A
330
1F
100
AcDbEntity
  8
0
  6
Continuous
 62
     2
100
AcDbLine
 10
158.6447453409192
 20
170.6590029699077
 30
0.0
 11
158.6447453409192
 21
169.9254883351334
 31
0.0
  0
LINE
  5
19B
330
1F
100
AcDbEntity
  8
0
  6
Continuous
 62
     2
100
AcDbLine
 10
158.6447453409192
 20
169.0254883351333
 30
0.0
 11
158.6447453409192
 21
169.7590029699076
 31
0.0
  0
LINE
  5
19C
330
1F
100
AcDbEntity
  8
0
  6
Continuous
 62
     2
100
AcDbLine
 10
158.6447453409192
 20
168.8590029699078
 30
0.0
 11
158.6447453409192
 21
168.1254883351334
 31
0.0
  0
LINE
  5
19D
330
1F
100
AcDbEntity
  8
0
  6
Continuous
 62
     2
100
AcDbLine
 10
158.6447453409192
 20
166.1590029699077
 30
0.0
 11
158.6447453409192
 21
165.4254883351334
 31
0.0
  0
LINE
  5
19E
330
1F
100
AcDbEntity
  8
0
  6
Continuous
 62
     2
100
AcDbLine
 10
158.6447453409192
 20
171.7254883351334
 30
0.0
 11
158.6447453409192
 21
172.0922456525206
 31
0.0
  0
LINE
  5
19F
330
1F
100
AcDbEntity
  8
0
  6
Continuous
 62
     2
100
AcDbLine
 10
158.6447453409192
 20
164.8922456525206
 30
0.0
 11
158.6447453409192
 21
165.2590029699076
 31
0.0
  0
LINE
  5
1A0
330
1F
100
AcDbEntity
  8
0
  6
Continuous
 62
     2
100
AcDbLine
 10
158.6447453409192
 20
169.9254883351334
 30
0.0
 11
158.6447453409192
 21
169.7590029699076
 31
0.0
  0
LINE
  5
1A1
330
1F
100
AcDbEntity
  8
0
  6
Continuous
 62
     2
100
AcDbLine
 10
158.6447453409192
 20
168.1254883351334
 30
0.0
 11
158.6447453409192
 21
167.9590029699077
 31
0.0
  0
LINE
  5
1A2
330
1F
100
AcDbEntity
  8
0
  6
Continuous
 62
     2
100
AcDbLine
 10
158.6447453409192
 20
167.2254883351334
 30
0.0
 11
158.6447453409192
 21
167.0590029699078
 31
0.0
  0
LINE
  5
1A3
330
1F
100
AcDbEntity
  8
0
  6
Continuous
 62
     2
100
AcDbLine
 10
158.6447453409192
 20
166.3254883351333
 30
0.0
 11
158.6447453409192
 21
166.1590029699077
 31
0.0
  0
LINE
  5
1A4
330
1F
100
AcDbEntity
  8
0
  6
Continuous
 62
     2
100
AcDbLine
 10
158.6447453409192
 20
171.7254883351334
 30
0.0
 11
158.6447453409192
 21
171.5590029699078
 31
0.0
  0
LINE
  5
1A5
330
1F
100
AcDbEntity
  8
0
  6
Continuous
 62
     2
100
AcDbLine
 10
158.6447453409192
 20
165.2590029699076
 30
0.0
 11
158.6447453409192
 21
165.4254883351334
 31
0.0
  0
LINE
  5
1A6
330
1F
100
AcDbEntity
  8
0
  6
Continuous
 62
     2
100
AcDbLine
 10
158.6447453409192
 20
157.8922456525206
 30
0.0
 11
158.6447453409192
 21
164.8922456525206
 31
0.0
  0
LINE
  5
1A7
330
1F
100
AcDbEntity
  8
0
  6
Continuous
 62
     2
100
AcDbLine
 10
158.6447453409192
 20
170.6590029699077
 30
0.0
 11
158.6447453409192
 21
170.8254883351333
 31
0.0
  0
LINE
  5
1A8
330
1F
100
AcDbEntity
  8
0
  6
Continuous
 62
     2
100
AcDbLine
 10
158.6447453409192
 20
169.0254883351333
 30
0.0
 11
158.6447453409192
 21
168.8590029699078
 31
0.0
  0
LINE
  5
1A9
330
1F
100
AcDbEntity
  8
0
  6
Continuous
 62
     2
100
AcDbLine
 10
158.6447453409192
 20
167.2254883351334
 30
0.0
 11
158.6447453409192
 21
167.9590029699077
 31
0.0
  0
LINE
  5
1AA
330
1F
100
AcDbEntity
  8
0
  6
Continuous
 62
     7
100
AcDbLine
 10
150.1697453409193
 20
166.3254883351333
 30
0.0
 11
150.1697453409193
 21
167.0590029699078
 31
0.0
  0
LINE
  5
1AB
330
1F
100
AcDbEntity
  8
0
  6
Continuous
 62
     7
100
AcDbLine
 10
150.1697453409193
 20
166.1590029699077
 30
0.0
 11
150.1697453409193
 21
166.3254883351333
 31
0.0
  0
LINE
  5
1AC
330
1F
100
AcDbEntity
  8
0
  6
Continuous
 62
     2
100
AcDbLine
 10
150.1697453409193
 20
166.3254883351333
 30
0.0
 11
144.6947453409196
 21
166.3254883351333
 31
0.0
  0
LINE
  5
1AD
330
1F
100
AcDbEntity
  8
0
  6
Continuous
 62
     2
100
AcDbLine
 10
150.1697453409193
 20
167.0590029699078
 30
0.0
 11
144.6947453409196
 21
167.0590029699078
 31
0.0
  0
LINE
  5
1AE
330
1F
100
AcDbEntity
  8
0
  6
Continuous
 62
     2
100
AcDbLine
 10
150.1697453409193
 20
166.1590029699077
 30
0.0
 11
144.6947453409196
 21
166.1590029699077
 31
0.0
  0
LINE
  5
1AF
330
1F
100
AcDbEntity
  8
0
  6
Continuous
 62
     7
100
AcDbLine
 10
153.1697453409193
 20
169.9254883351334
 30
0.0
 11
153.1697453409193
 21
169.7590029699076
 31
0.0
  0
LINE
  5
1B0
330
1F
100
AcDbEntity
  8
0
  6
Continuous
 62
     7
100
AcDbLine
 10
153.1697453409193
 20
170.6590029699077
 30
0.0
 11
153.1697453409193
 21
169.9254883351334
 31
0.0
  0
LINE
  5
1B1
330
1F
100
AcDbEntity
  8
0
  6
Continuous
 62
     7
100
AcDbLine
 10
153.1697453409193
 20
169.0254883351333
 30
0.0
 11
153.1697453409193
 21
168.8590029699078
 31
0.0
  0
LINE
  5
1B2
330
1F
100
AcDbEntity
  8
0
  6
Continuous
 62
     7
100
AcDbLine
 10
153.1697453409193
 20
168.8590029699078
 30
0.0
 11
153.1697453409193
 21
168.1254883351334
 31
0.0
  0
LINE
  5
1B3
330
1F
100
AcDbEntity
  8
0
  6
Continuous
 62
     7
100
AcDbLine
 10
150.1697453409193
 20
169.7590029699076
 30
0.0
 11
150.1697453409193
 21
169.9254883351334
 31
0.0
  0
LINE
  5
1B4
330
1F
100
AcDbEntity
  8
0
  6
Continuous
 62
     7
100
AcDbLine
 10
150.1697453409193
 20
168.1254883351334
 30
0.0
 11
150.1697453409193
 21
168.8590029699078
 31
0.0
  0
LINE
  5
1B5
330
1F
100
AcDbEntity
  8
0
  6
Continuous
 62
     7
100
AcDbLine
 10
150.1697453409193
 20
168.8590029699078
 30
0.0
 11
150.1697453409193
 21
169.0254883351333
 31
0.0
  0
LINE
  5
1B6
330
1F
100
AcDbEntity
  8
0
  6
Continuous
 62
     7
100
AcDbLine
 10
150.1697453409193
 20
169.0254883351333
 30
0.0
 11
150.1697453409193
 21
169.7590029699076
 31
0.0
  0
LINE
  5
1B7
330
1F
100
AcDbEntity
  8
0
  6
Continuous
 62
     2
100
AcDbLine
 10
150.1697453409193
 20
169.0254883351333
 30
0.0
 11
144.6947453409196
 21
169.0254883351333
 31
0.0
  0
LINE
  5
1B8
330
1F
100
AcDbEntity
  8
0
  6
Continuous
 62
     2
100
AcDbLine
 10
150.1697453409193
 20
169.7590029699076
 30
0.0
 11
144.6947453409196
 21
169.7590029699076
 31
0.0
  0
LINE
  5
1B9
330
1F
100
AcDbEntity
  8
0
  6
Continuous
 62
     2
100
AcDbLine
 10
150.1697453409193
 20
168.8590029699078
 30
0.0
 11
144.6947453409196
 21
168.8590029699078
 31
0.0
  0
LINE
  5
1BA
330
1F
100
AcDbEntity
  8
0
  6
Continuous
 62
     7
100
AcDbLine
 10
153.1697453409193
 20
169.7590029699076
 30
0.0
 11
153.1697453409193
 21
169.0254883351333
 31
0.0
  0
LINE
  5
1BB
330
1F
100
AcDbEntity
  8
0
  6
Continuous
 62
     2
100
AcDbLine
 10
144.6947453409196
 20
165.4254883351334
 30
0.0
 11
144.6947453409196
 21
165.2590029699076
 31
0.0
  0
LINE
  5
1BC
330
1F
100
AcDbEntity
  8
0
  6
Continuous
 62
     2
100
AcDbLine
 10
144.6947453409196
 20
167.2254883351334
 30
0.0
 11
144.6947453409196
 21
167.0590029699078
 31
0.0
  0
LINE
  5
1BD
330
1F
100
AcDbEntity
  8
0
  6
Continuous
 62
     2
100
AcDbLine
 10
144.6947453409196
 20
166.3254883351333
 30
0.0
 11
144.6947453409196
 21
166.1590029699077
 31
0.0
  0
LINE
  5
1BE
330
1F
100
AcDbEntity
  8
0
  6
Continuous
 62
     2
100
AcDbLine
 10
144.6947453409196
 20
167.2254883351334
 30
0.0
 11
144.6947453409196
 21
167.9590029699077
 31
0.0
  0
LINE
  5
1BF
330
1F
100
AcDbEntity
  8
0
  6
Continuous
 62
     2
100
AcDbLine
 10
144.6947453409196
 20
165.4254883351334
 30
0.0
 11
144.6947453409196
 21
166.1590029699077
 31
0.0
  0
LINE
  5
1C0
330
1F
100
AcDbEntity
  8
0
  6
Continuous
 62
     2
100
AcDbLine
 10
144.6947453409196
 20
167.0590029699078
 30
0.0
 11
144.6947453409196
 21
166.3254883351333
 31
0.0
  0
LINE
  5
1C1
330
1F
100
AcDbEntity
  8
0
  6
Continuous
 62
     7
100
AcDbLine
 10
153.1697453409193
 20
166.3254883351333
 30
0.0
 11
153.1697453409193
 21
166.1590029699077
 31
0.0
  0
LINE
  5
1C2
330
1F
100
AcDbEntity
  8
0
  6
Continuous
 62
     7
100
AcDbLine
 10
153.1697453409193
 20
165.4254883351334
 30
0.0
 11
153.1697453409193
 21
165.2590029699076
 31
0.0
  0
LINE
  5
1C3
330
1F
100
AcDbEntity
  8
0
  6
Continuous
 62
     7
100
AcDbLine
 10
153.1697453409193
 20
165.2590029699076
 30
0.0
 11
153.1697453409193
 21
164.8922456525206
 31
0.0
  0
LINE
  5
1C4
330
1F
100
AcDbEntity
  8
0
  6
Continuous
 62
     7
100
AcDbLine
 10
153.1697453409193
 20
167.0590029699078
 30
0.0
 11
153.1697453409193
 21
166.3254883351333
 31
0.0
  0
LINE
  5
1C5
330
1F
100
AcDbEntity
  8
0
  6
Continuous
 62
     7
100
AcDbLine
 10
150.1697453409193
 20
165.4254883351334
 30
0.0
 11
150.1697453409193
 21
166.1590029699077
 31
0.0
  0
LINE
  5
1C6
330
1F
100
AcDbEntity
  8
0
  6
Continuous
 62
     7
100
AcDbLine
 10
150.1697453409193
 20
164.8922456525206
 30
0.0
 11
150.1697453409193
 21
165.2590029699076
 31
0.0
  0
LINE
  5
1C7
330
1F
100
AcDbEntity
  8
0
  6
Continuous
 62
     7
100
AcDbLine
 10
150.1697453409193
 20
165.2590029699076
 30
0.0
 11
150.1697453409193
 21
165.4254883351334
 31
0.0
  0
LINE
  5
1C8
330
1F
100
AcDbEntity
  8
0
  6
Continuous
 62
     2
100
AcDbLine
 10
150.1697453409193
 20
165.2590029699076
 30
0.0
 11
144.6947453409196
 21
165.2590029699076
 31
0.0
  0
LINE
  5
1C9
330
1F
100
AcDbEntity
  8
0
  6
Continuous
 62
     2
100
AcDbLine
 10
150.1697453409193
 20
165.4254883351334
 30
0.0
 11
144.6947453409196
 21
165.4254883351334
 31
0.0
  0
LINE
  5
1CA
330
1F
100
AcDbEntity
  8
0
  6
Continuous
 62
     7
100
AcDbLine
 10
153.1697453409193
 20
166.1590029699077
 30
0.0
 11
153.1697453409193
 21
165.4254883351334
 31
0.0
  0
LINE
  5
1CB
330
1F
100
AcDbEntity
  8
0
  6
Continuous
 62
     2
100
AcDbLine
 10
144.6947453409196
 20
172.0922456525206
 30
0.0
 11
144.6947453409196
 21
171.7254883351334
 31
0.0
  0
LINE
  5
1CC
330
1F
100
AcDbEntity
  8
0
  6
Continuous
 62
     2
100
AcDbLine
 10
144.6947453409196
 20
168.1254883351334
 30
0.0
 11
144.6947453409196
 21
167.9590029699077
 31
0.0
  0
LINE
  5
1CD
330
1F
100
AcDbEntity
  8
0
  6
Continuous
 62
     2
100
AcDbLine
 10
144.6947453409196
 20
169.9254883351334
 30
0.0
 11
144.6947453409196
 21
169.7590029699076
 31
0.0
  0
LINE
  5
1CE
330
1F
100
AcDbEntity
  8
0
  6
Continuous
 62
     2
100
AcDbLine
 10
144.6947453409196
 20
168.8590029699078
 30
0.0
 11
144.6947453409196
 21
168.1254883351334
 31
0.0
  0
LINE
  5
1CF
330
1F
100
AcDbEntity
  8
0
  6
Continuous
 62
     2
100
AcDbLine
 10
144.6947453409196
 20
169.0254883351333
 30
0.0
 11
144.6947453409196
 21
168.8590029699078
 31
0.0
  0
LINE
  5
1D0
330
1F
100
AcDbEntity
  8
0
  6
Continuous
 62
     2
100
AcDbLine
 10
144.6947453409196
 20
170.6590029699077
 30
0.0
 11
144.6947453409196
 21
169.9254883351334
 31
0.0
  0
LINE
  5
1D1
330
1F
100
AcDbEntity
  8
0
  6
Continuous
 62
     2
100
AcDbLine
 10
144.6947453409196
 20
170.8254883351333
 30
0.0
 11
144.6947453409196
 21
170.6590029699077
 31
0.0
  0
LINE
  5
1D2
330
1F
100
AcDbEntity
  8
0
  6
Continuous
 62
     2
100
AcDbLine
 10
144.6947453409196
 20
170.8254883351333
 30
0.0
 11
144.6947453409196
 21
171.5590029699078
 31
0.0
  0
LINE
  5
1D3
330
1F
100
AcDbEntity
  8
0
  6
Continuous
 62
     2
100
AcDbLine
 10
144.6947453409196
 20
171.7254883351334
 30
0.0
 11
144.6947453409196
 21
171.5590029699078
 31
0.0
  0
LINE
  5
1D4
330
1F
100
AcDbEntity
  8
0
  6
Continuous
 62
     2
100
AcDbLine
 10
144.6947453409196
 20
169.0254883351333
 30
0.0
 11
144.6947453409196
 21
169.7590029699076
 31
0.0
  0
LINE
  5
1D5
330
1F
100
AcDbEntity
  8
0
  6
Continuous
 62
     7
100
AcDbLine
 10
153.1697453409193
 20
171.7254883351334
 30
0.0
 11
153.1697453409193
 21
171.5590029699078
 31
0.0
  0
LINE
  5
1D6
330
1F
100
AcDbEntity
  8
0
  6
Continuous
 62
     7
100
AcDbLine
 10
153.1697453409193
 20
170.8254883351333
 30
0.0
 11
153.1697453409193
 21
170.6590029699077
 31
0.0
  0
LINE
  5
1D7
330
1F
100
AcDbEntity
  8
0
  6
Continuous
 62
     7
100
AcDbLine
 10
153.1697453409193
 20
172.0922456525206
 30
0.0
 11
153.1697453409193
 21
171.7254883351334
 31
0.0
  0
LINE
  5
1D8
330
1F
100
AcDbEntity
  8
0
  6
Continuous
 62
     7
100
AcDbLine
 10
150.1697453409193
 20
171.7254883351334
 30
0.0
 11
150.1697453409193
 21
172.0922456525206
 31
0.0
  0
LINE
  5
1D9
330
1F
100
AcDbEntity
  8
0
  6
Continuous
 62
     7
100
AcDbLine
 10
150.1697453409193
 20
171.5590029699078
 30
0.0
 11
150.1697453409193
 21
171.7254883351334
 31
0.0
  0
LINE
  5
1DA
330
1F
100
AcDbEntity
  8
0
  6
Continuous
 62
     7
100
AcDbLine
 10
150.1697453409193
 20
170.8254883351333
 30
0.0
 11
150.1697453409193
 21
171.5590029699078
 31
0.0
  0
LINE
  5
1DB
330
1F
100
AcDbEntity
  8
0
  6
Continuous
 62
     7
100
AcDbLine
 10
150.1697453409193
 20
170.6590029699077
 30
0.0
 11
150.1697453409193
 21
170.8254883351333
 31
0.0
  0
LINE
  5
1DC
330
1F
100
AcDbEntity
  8
0
  6
Continuous
 62
     7
100
AcDbLine
 10
150.1697453409193
 20
169.9254883351334
 30
0.0
 11
150.1697453409193
 21
170.6590029699077
 31
0.0
  0
LINE
  5
1DD
330
1F
100
AcDbEntity
  8
0
  6
Continuous
 62
     2
100
AcDbLine
 10
150.1697453409193
 20
169.9254883351334
 30
0.0
 11
144.6947453409196
 21
169.9254883351334
 31
0.0
  0
LINE
  5
1DE
330
1F
100
AcDbEntity
  8
0
  6
Continuous
 62
     2
100
AcDbLine
 10
150.1697453409193
 20
170.6590029699077
 30
0.0
 11
144.6947453409196
 21
170.6590029699077
 31
0.0
  0
LINE
  5
1DF
330
1F
100
AcDbEntity
  8
0
  6
Continuous
 62
     2
100
AcDbLine
 10
150.1697453409193
 20
170.8254883351333
 30
0.0
 11
144.6947453409196
 21
170.8254883351333
 31
0.0
  0
LINE
  5
1E0
330
1F
100
AcDbEntity
  8
0
  6
Continuous
 62
     2
100
AcDbLine
 10
150.1697453409193
 20
171.5590029699078
 30
0.0
 11
144.6947453409196
 21
171.5590029699078
 31
0.0
  0
LINE
  5
1E1
330
1F
100
AcDbEntity
  8
0
  6
Continuous
 62
     2
100
AcDbLine
 10
150.1697453409193
 20
171.7254883351334
 30
0.0
 11
144.6947453409196
 21
171.7254883351334
 31
0.0
  0
LINE
  5
1E2
330
1F
100
AcDbEntity
  8
0
  6
Continuous
 62
     2
100
AcDbLine
 10
150.1697453409193
 20
172.0922456525206
 30
0.0
 11
144.6947453409196
 21
172.0922456525206
 31
0.0
  0
LINE
  5
1E3
330
1F
100
AcDbEntity
  8
0
  6
Continuous
 62
     7
100
AcDbLine
 10
153.1697453409193
 20
171.5590029699078
 30
0.0
 11
153.1697453409193
 21
170.8254883351333
 31
0.0
  0
LINE
  5
1E4
330
1F
100
AcDbEntity
  8
0
  6
Continuous
 62
     2
100
AcDbLine
 10
144.6947453409196
 20
165.2590029699076
 30
0.0
 11
144.6947453409196
 21
164.8922456525206
 31
0.0
  0
LINE
  5
1E5
330
1F
100
AcDbEntity
  8
0
  6
Continuous
 62
     2
100
AcDbLine
 10
144.6947453409196
 20
157.8922456525206
 30
0.0
 11
144.6947453409196
 21
164.8922456525206
 31
0.0
  0
LINE
  5
1E6
330
1F
100
AcDbEntity
  8
0
  6
Continuous
 62
     7
100
AcDbLine
 10
144.6947453409196
 20
157.8922456525206
 30
0.0
 11
144.8197453409196
 21
157.8922456525206
 31
0.0
  0
LINE
  5
1E7
330
1F
100
AcDbEntity
  8
0
  6
Continuous
 62
     7
100
AcDbLine
 10
153.1697453409193
 20
167.2254883351334
 30
0.0
 11
153.1697453409193
 21
167.0590029699078
 31
0.0
  0
LINE
  5
1E8
330
1F
100
AcDbEntity
  8
0
  6
Continuous
 62
     7
100
AcDbLine
 10
153.1697453409193
 20
168.1254883351334
 30
0.0
 11
153.1697453409193
 21
167.9590029699077
 31
0.0
  0
LINE
  5
1E9
330
1F
100
AcDbEntity
  8
0
  6
Continuous
 62
     7
100
AcDbLine
 10
150.1697453409193
 20
167.0590029699078
 30
0.0
 11
150.1697453409193
 21
167.2254883351334
 31
0.0
  0
LINE
  5
1EA
330
1F
100
AcDbEntity
  8
0
  6
Continuous
 62
     7
100
AcDbLine
 10
150.1697453409193
 20
167.9590029699077
 30
0.0
 11
150.1697453409193
 21
168.1254883351334
 31
0.0
  0
LINE
  5
1EB
330
1F
100
AcDbEntity
  8
0
  6
Continuous
 62
     7
100
AcDbLine
 10
150.1697453409193
 20
167.2254883351334
 30
0.0
 11
150.1697453409193
 21
167.9590029699077
 31
0.0
  0
LINE
  5
1EC
330
1F
100
AcDbEntity
  8
0
  6
Continuous
 62
     2
100
AcDbLine
 10
150.1697453409193
 20
167.9590029699077
 30
0.0
 11
144.6947453409196
 21
167.9590029699077
 31
0.0
  0
LINE
  5
1ED
330
1F
100
AcDbEntity
  8
0
  6
Continuous
 62
     2
100
AcDbLine
 10
150.1697453409193
 20
167.2254883351334
 30
0.0
 11
144.6947453409196
 21
167.2254883351334
 31
0.0
  0
LINE
  5
1EE
330
1F
100
AcDbEntity
  8
0
  6
Continuous
 62
     2
100
AcDbLine
 10
150.1697453409193
 20
168.1254883351334
 30
0.0
 11
144.6947453409196
 21
168.1254883351334
 31
0.0
  0
LINE
  5
1EF
330
1F
100
AcDbEntity
  8
0
  6
Continuous
 62
     7
100
AcDbLine
 10
153.1697453409193
 20
167.9590029699077
 30
0.0
 11
153.1697453409193
 21
167.2254883351334
 31
0.0
  0
LINE
  5
1F0
330
1F
100
AcDbEntity
  8
0
  6
Continuous
 62
     2
100
AcDbLine
 10
150.1697453409193
 20
164.8922456525206
 30
0.0
 11
144.6947453409196
 21
164.8922456525206
 31
0.0
  0
LINE
  5
1F1
330
1F
100
AcDbEntity
  8
0
  6
Continuous
 62
     7
100
AcDbLine
 10
137.4197453409196
 20
152.8922456525206
 30
0.0
 11
144.8197453409196
 21
152.8922456525206
 31
0.0
  0
LINE
  5
1F2
330
1F
100
AcDbEntity
  8
0
  6
Continuous
 62
     2
100
AcDbLine
 10
144.6947453409196
 20
166.3254883351333
 30
0.0
 11
138.4549085122165
 21
166.3254883351333
 31
0.0
  0
LINE
  5
1F3
330
1F
100
AcDbEntity
  8
0
  6
Continuous
 62
     2
100
AcDbLine
 10
144.6947453409196
 20
167.9590029699077
 30
0.0
 11
138.6345821696226
 21
167.9590029699077
 31
0.0
  0
LINE
  5
1F4
330
1F
100
AcDbEntity
  8
0
  6
Continuous
 62
     2
100
AcDbLine
 10
144.6947453409196
 20
168.8590029699078
 30
0.0
 11
138.4549085122165
 21
168.8590029699078
 31
0.0
  0
LINE
  5
1F5
330
1F
100
AcDbEntity
  8
0
  6
Continuous
 62
     7
100
AcDbLine
 10
138.4549085122165
 20
168.8590029699078
 30
0.0
 11
138.6345821696226
 21
169.0254883351333
 31
0.0
  0
LINE
  5
1F6
330
1F
100
AcDbEntity
  8
0
  6
Continuous
 62
     7
100
AcDbLine
 10
138.4549085122165
 20
169.9254883351334
 30
0.0
 11
138.6345821696226
 21
169.7590029699076
 31
0.0
  0
LINE
  5
1F7
330
1F
100
AcDbEntity
  8
0
  6
Continuous
 62
     7
100
AcDbLine
 10
138.4549085122165
 20
171.7254883351334
 30
0.0
 11
138.6345821696226
 21
171.5590029699078
 31
0.0
  0
LINE
  5
1F8
330
1F
100
AcDbEntity
  8
0
  6
Continuous
 62
     7
100
AcDbLine
 10
138.4549085122165
 20
168.1254883351334
 30
0.0
 11
138.6345821696226
 21
167.9590029699077
 31
0.0
  0
LINE
  5
1F9
330
1F
100
AcDbEntity
  8
0
  6
Continuous
 62
     2
100
AcDbLine
 10
144.6947453409196
 20
170.6590029699077
 30
0.0
 11
138.4549085122165
 21
170.6590029699077
 31
0.0
  0
LINE
  5
1FA
330
1F
100
AcDbEntity
  8
0
  6
Continuous
 62
     2
100
AcDbLine
 10
144.6947453409196
 20
172.0922456525206
 30
0.0
 11
138.2947453409196
 21
172.0922456525206
 31
0.0
  0
LINE
  5
1FB
330
1F
100
AcDbEntity
  8
0
  6
Continuous
 62
     2
100
AcDbLine
 10
144.6947453409196
 20
171.7254883351334
 30
0.0
 11
138.4549085122165
 21
171.7254883351334
 31
0.0
  0
LINE
  5
1FC
330
1F
100
AcDbEntity
  8
0
  6
Continuous
 62
     2
100
AcDbLine
 10
144.6947453409196
 20
171.5590029699078
 30
0.0
 11
138.6345821696226
 21
171.5590029699078
 31
0.0
  0
LINE
  5
1FD
330
1F
100
AcDbEntity
  8
0
  6
Continuous
 62
     2
100
AcDbLine
 10
144.6947453409196
 20
170.8254883351333
 30
0.0
 11
138.6345821696226
 21
170.8254883351333
 31
0.0
  0
LINE
  5
1FE
330
1F
100
AcDbEntity
  8
0
  6
Continuous
 62
     7
100
AcDbLine
 10
138.4549085122165
 20
170.6590029699077
 30
0.0
 11
138.6345821696226
 21
170.8254883351333
 31
0.0
  0
LINE
  5
1FF
330
1F
100
AcDbEntity
  8
0
  6
Continuous
 62
     2
100
AcDbLine
 10
144.6947453409196
 20
167.0590029699078
 30
0.0
 11
138.4549085122165
 21
167.0590029699078
 31
0.0
  0
LINE
  5
200
330
1F
100
AcDbEntity
  8
0
  6
Continuous
 62
     2
100
AcDbLine
 10
144.6947453409196
 20
167.2254883351334
 30
0.0
 11
138.6345821696226
 21
167.2254883351334
 31
0.0
  0
LINE
  5
201
330
1F
100
AcDbEntity
  8
0
  6
Continuous
 62
     2
100
AcDbLine
 10
144.6947453409196
 20
166.1590029699077
 30
0.0
 11
138.6345821696226
 21
166.1590029699077
 31
0.0
  0
LINE
  5
202
330
1F
100
AcDbEntity
  8
0
  6
Continuous
 62
     2
100
AcDbLine
 10
144.6947453409196
 20
165.4254883351334
 30
0.0
 11
138.6345821696226
 21
165.4254883351334
 31
0.0
  0
LINE
  5
203
330
1F
100
AcDbEntity
  8
0
  6
Continuous
 62
     7
100
AcDbLine
 10
138.4549085122165
 20
167.0590029699078
 30
0.0
 11
138.6345821696226
 21
167.2254883351334
 31
0.0
  0
LINE
  5
204
330
1F
100
AcDbEntity
  8
0
  6
Continuous
 62
     7
100
AcDbLine
 10
138.4549085122165
 20
166.3254883351333
 30
0.0
 11
138.6345821696226
 21
166.1590029699077
 31
0.0
  0
LINE
  5
205
330
1F
100
AcDbEntity
  8
0
  6
Continuous
 62
     7
100
AcDbLine
 10
138.4549085122165
 20
165.2590029699076
 30
0.0
 11
138.6345821696226
 21
165.4254883351334
 31
0.0
  0
LINE
  5
206
330
1F
100
AcDbEntity
  8
0
  6
Continuous
 62
     2
100
AcDbLine
 10
144.6947453409196
 20
169.9254883351334
 30
0.0
 11
138.4549085122165
 21
169.9254883351334
 31
0.0
  0
LINE
  5
207
330
1F
100
AcDbEntity
  8
0
  6
Continuous
 62
     2
100
AcDbLine
 10
144.6947453409196
 20
169.0254883351333
 30
0.0
 11
138.6345821696226
 21
169.0254883351333
 31
0.0
  0
LINE
  5
208
330
1F
100
AcDbEntity
  8
0
  6
Continuous
 62
     2
100
AcDbLine
 10
144.6947453409196
 20
169.7590029699076
 30
0.0
 11
138.6345821696226
 21
169.7590029699076
 31
0.0
  0
LINE
  5
209
330
1F
100
AcDbEntity
  8
0
  6
Continuous
 62
     2
100
AcDbLine
 10
144.6947453409196
 20
168.1254883351334
 30
0.0
 11
138.4549085122165
 21
168.1254883351334
 31
0.0
  0
LINE
  5
20A
330
1F
100
AcDbEntity
  8
0
  6
Continuous
 62
     2
100
AcDbLine
 10
144.6947453409196
 20
165.2590029699076
 30
0.0
 11
138.4549085122165
 21
165.2590029699076
 31
0.0
  0
LINE
  5
20B
330
1F
100
AcDbEntity
  8
0
  6
Continuous
 62
     2
100
AcDbLine
 10
140.4197453409196
 20
206.8922456525206
 30
0.0
 11
140.4197453409196
 21
204.6687027878281
 31
0.0
  0
LINE
  5
20C
330
1F
100
AcDbEntity
  8
0
  6
Continuous
 62
     7
100
AcDbLine
 10
137.4197453409193
 20
201.8922456525205
 30
0.0
 11
137.4197453409196
 21
203.8922456525206
 31
0.0
  0
LINE
  5
20D
330
1F
100
AcDbEntity
  8
0
  6
Continuous
 62
     7
100
AcDbLine
 10
138.4197453409196
 20
186.8922456525206
 30
0.0
 11
138.4197453409196
 21
200.8922456525206
 31
0.0
  0
LINE
  5
20E
330
1F
100
AcDbEntity
  8
0
  6
Continuous
 62
     7
100
AcDbLine
 10
138.2197453409197
 20
180.8922456525206
 30
0.0
 11
138.2947453409196
 21
180.8922456525206
 31
0.0
  0
LINE
  5
20F
330
1F
100
AcDbEntity
  8
0
  6
Continuous
 62
     2
100
AcDbLine
 10
140.4197453409196
 20
181.8993008886025
 30
0.0
 11
140.4197453409196
 21
204.6687027878281
 31
0.0
  0
LINE
  5
210
330
1F
100
AcDbEntity
  8
0
  6
Continuous
 62
     7
100
AcDbLine
 10
138.2947453409196
 20
180.8922456525206
 30
0.0
 11
140.4197453409196
 21
180.8922456525206
 31
0.0
  0
LINE
  5
211
330
1F
100
AcDbEntity
  8
0
  6
Continuous
 62
     7
100
AcDbLine
 10
137.4197453409196
 20
181.6922456525205
 30
0.0
 11
137.4197453409196
 21
185.8922456525206
 31
0.0
  0
LINE
  5
212
330
1F
100
AcDbEntity
  8
0
  6
Continuous
 62
     2
100
AcDbLine
 10
137.4197453409196
 20
162.0392932652769
 30
0.0
 11
138.2947453409196
 21
162.0392932652769
 31
0.0
  0
LINE
  5
213
330
1F
100
AcDbEntity
  8
0
  6
Continuous
 62
     7
100
AcDbLine
 10
137.4197453409196
 20
157.8922456525206
 30
0.0
 11
137.4197453409196
 21
152.8922456525206
 31
0.0
  0
LINE
  5
214
330
1F
100
AcDbEntity
  8
0
  6
Continuous
 62
     7
100
AcDbLine
 10
138.2947453409196
 20
157.8922456525206
 30
0.0
 11
138.2947453409196
 21
162.0392932652769
 31
0.0
  0
LINE
  5
215
330
1F
100
AcDbEntity
  8
0
  6
Continuous
 62
     7
100
AcDbLine
 10
138.2947453409196
 20
162.0392932652769
 30
0.0
 11
138.2947453409196
 21
163.8922456525206
 31
0.0
  0
LINE
  5
216
330
1F
100
AcDbEntity
  8
0
  6
Continuous
 62
     7
100
AcDbLine
 10
138.2947453409196
 20
172.0922456525206
 30
0.0
 11
138.2947453409196
 21
180.8922456525206
 31
0.0
  0
LINE
  5
217
330
1F
100
AcDbEntity
  8
0
  6
Continuous
 62
     7
100
AcDbLine
 10
138.4197453409196
 20
186.8922456525206
 30
0.0
 11
137.4197453409196
 21
185.8922456525206
 31
0.0
  0
LINE
  5
218
330
1F
100
AcDbEntity
  8
0
  6
Continuous
 62
     7
100
AcDbLine
 10
137.4197453409193
 20
201.8922456525205
 30
0.0
 11
138.4197453409196
 21
200.8922456525206
 31
0.0
  0
LINE
  5
219
330
1F
100
AcDbEntity
  8
0
  6
Continuous
 62
     7
100
AcDbLine
 10
144.8197453409196
 20
152.8922456525206
 30
0.0
 11
158.5197453409192
 21
152.8922456525206
 31
0.0
  0
LINE
  5
21A
330
1F
100
AcDbEntity
  8
0
  6
Continuous
 62
     7
100
AcDbLine
 10
162.9197453409193
 20
206.8922456525206
 30
0.0
 11
156.8883010395772
 21
206.8922456525206
 31
0.0
  0
LINE
  5
21B
330
1F
100
AcDbEntity
  8
0
  6
Continuous
 62
     2
100
AcDbLine
 10
162.9197453409193
 20
206.8922456525206
 30
0.0
 11
162.9197453409193
 21
204.6687027878281
 31
0.0
  0
LINE
  5
21C
330
1F
100
AcDbEntity
  8
0
  6
Continuous
 62
     2
100
AcDbLine
 10
162.9197453409193
 20
204.6687027878281
 30
0.0
 11
151.6697453409198
 21
204.6687027878281
 31
0.0
  0
LINE
  5
21D
330
1F
100
AcDbEntity
  8
0
  6
Continuous
 62
     2
100
AcDbLine
 10
162.9197453409193
 20
204.6687027878281
 30
0.0
 11
162.9197453409193
 21
181.8993008886025
 31
0.0
  0
LINE
  5
21E
330
1F
100
AcDbEntity
  8
0
  6
Continuous
 62
     7
100
AcDbLine
 10
165.1197453409191
 20
197.1219740528261
 30
0.0
 11
165.1197453409191
 21
194.150932328336
 31
0.0
  0
LINE
  5
21F
330
1F
100
AcDbEntity
  8
0
  6
Continuous
 62
     7
100
AcDbLine
 10
165.1197453409191
 20
197.1219740528261
 30
0.0
 11
164.9197453409193
 21
197.1219740528261
 31
0.0
  0
LINE
  5
220
330
1F
100
AcDbEntity
  8
0
  6
Continuous
 62
     7
100
AcDbLine
 10
164.9197453409193
 20
197.1219740528261
 30
0.0
 11
164.9197453409193
 21
194.150932328336
 31
0.0
  0
LINE
  5
221
330
1F
100
AcDbEntity
  8
0
  6
Continuous
 62
     7
100
AcDbLine
 10
164.9197453409193
 20
200.8922456525205
 30
0.0
 11
164.9197453409193
 21
197.1219740528261
 31
0.0
  0
LINE
  5
222
330
1F
100
AcDbEntity
  8
0
  6
Continuous
 62
     7
100
AcDbLine
 10
165.9197453409193
 20
203.8922456525206
 30
0.0
 11
165.9197453409193
 21
201.8922456525206
 31
0.0
  0
LINE
  5
223
330
1F
100
AcDbEntity
  8
0
  6
Continuous
 62
     7
100
AcDbLine
 10
165.9197453409193
 20
163.8922456525206
 30
0.0
 11
165.9197453409193
 21
163.3922456525206
 31
0.0
  0
LINE
  5
224
330
1F
100
AcDbEntity
  8
0
  6
Continuous
 62
     7
100
AcDbLine
 10
165.9197453409193
 20
163.3922456525206
 30
0.0
 11
165.9197453409193
 21
162.0392932652769
 31
0.0
  0
LINE
  5
225
330
1F
100
AcDbEntity
  8
0
  6
Continuous
 62
     7
100
AcDbLine
 10
165.9197453409193
 20
163.8922456525206
 30
0.0
 11
165.0447453409193
 21
163.8922456525206
 31
0.0
  0
LINE
  5
226
330
1F
100
AcDbEntity
  8
0
  6
Continuous
 62
     7
100
AcDbLine
 10
165.9197453409193
 20
161.3922456525206
 30
0.0
 11
165.9197453409193
 21
162.0392932652769
 31
0.0
  0
LINE
  5
227
330
1F
100
AcDbEntity
  8
0
  6
Continuous
 62
     7
100
AcDbLine
 10
158.5197453409192
 20
152.8922456525206
 30
0.0
 11
165.9197453409193
 21
152.8922456525206
 31
0.0
  0
LINE
  5
228
330
1F
100
AcDbEntity
  8
0
  6
Continuous
 62
     7
100
AcDbLine
 10
165.9197453409193
 20
157.8922456525206
 30
0.0
 11
165.9197453409193
 21
152.8922456525206
 31
0.0
  0
LINE
  5
229
330
1F
100
AcDbEntity
  8
0
  6
Continuous
 62
     7
100
AcDbLine
 10
165.9197453409193
 20
185.8922456525205
 30
0.0
 11
165.9197453409193
 21
181.6922456525205
 31
0.0
  0
LINE
  5
22A
330
1F
100
AcDbEntity
  8
0
  6
Continuous
 62
     2
100
AcDbLine
 10
165.1197453409191
 20
193.6312209767068
 30
0.0
 11
164.9197453409193
 21
193.6312209767068
 31
0.0
  0
LINE
  5
22B
330
1F
100
AcDbEntity
  8
0
  6
Continuous
 62
     2
100
AcDbLine
 10
165.1197453409191
 20
194.150932328336
 30
0.0
 11
164.9197453409193
 21
194.150932328336
 31
0.0
  0
LINE
  5
22C
330
1F
100
AcDbEntity
  8
0
  6
Continuous
 62
     7
100
AcDbLine
 10
164.9197453409193
 20
194.150932328336
 30
0.0
 11
164.9197453409193
 21
193.6312209767068
 31
0.0
  0
LINE
  5
22D
330
1F
100
AcDbEntity
  8
0
  6
Continuous
 62
     7
100
AcDbLine
 10
164.8845821696224
 20
171.7254883351334
 30
0.0
 11
164.7049085122163
 21
171.5590029699078
 31
0.0
  0
LINE
  5
22E
330
1F
100
AcDbEntity
  8
0
  6
Continuous
 62
     2
100
AcDbLine
 10
158.6447453409192
 20
171.7254883351334
 30
0.0
 11
164.8845821696224
 21
171.7254883351334
 31
0.0
  0
LINE
  5
22F
330
1F
100
AcDbEntity
  8
0
  6
Continuous
 62
     7
100
AcDbLine
 10
164.8845821696224
 20
170.6590029699077
 30
0.0
 11
164.7049085122163
 21
170.8254883351333
 31
0.0
  0
LINE
  5
230
330
1F
100
AcDbEntity
  8
0
  6
Continuous
 62
     2
100
AcDbLine
 10
158.6447453409192
 20
171.5590029699078
 30
0.0
 11
164.7049085122163
 21
171.5590029699078
 31
0.0
  0
LINE
  5
231
330
1F
100
AcDbEntity
  8
0
  6
Continuous
 62
     7
100
AcDbLine
 10
164.8845821696224
 20
165.2590029699076
 30
0.0
 11
164.7049085122163
 21
165.4254883351334
 31
0.0
  0
LINE
  5
232
330
1F
100
AcDbEntity
  8
0
  6
Continuous
 62
     2
100
AcDbLine
 10
165.0447453409193
 20
164.8922456525206
 30
0.0
 11
158.6447453409192
 21
164.8922456525206
 31
0.0
  0
LINE
  5
233
330
1F
100
AcDbEntity
  8
0
  6
Continuous
 62
     7
100
AcDbLine
 10
164.8845821696224
 20
168.1254883351334
 30
0.0
 11
164.7049085122163
 21
167.9590029699077
 31
0.0
  0
LINE
  5
234
330
1F
100
AcDbEntity
  8
0
  6
Continuous
 62
     7
100
AcDbLine
 10
164.8845821696224
 20
166.3254883351333
 30
0.0
 11
164.7049085122163
 21
166.1590029699077
 31
0.0
  0
LINE
  5
235
330
1F
100
AcDbEntity
  8
0
  6
Continuous
 62
     2
100
AcDbLine
 10
158.6447453409192
 20
168.1254883351334
 30
0.0
 11
164.8845821696224
 21
168.1254883351334
 31
0.0
  0
LINE
  5
236
330
1F
100
AcDbEntity
  8
0
  6
Continuous
 62
     2
100
AcDbLine
 10
158.6447453409192
 20
167.9590029699077
 30
0.0
 11
164.7049085122163
 21
167.9590029699077
 31
0.0
  0
LINE
  5
237
330
1F
100
AcDbEntity
  8
0
  6
Continuous
 62
     2
100
AcDbLine
 10
158.6447453409192
 20
169.9254883351334
 30
0.0
 11
164.8845821696224
 21
169.9254883351334
 31
0.0
  0
LINE
  5
238
330
1F
100
AcDbEntity
  8
0
  6
Continuous
 62
     2
100
AcDbLine
 10
158.6447453409192
 20
169.7590029699076
 30
0.0
 11
164.7049085122163
 21
169.7590029699076
 31
0.0
  0
LINE
  5
239
330
1F
100
AcDbEntity
  8
0
  6
Continuous
 62
     2
100
AcDbLine
 10
158.6447453409192
 20
170.6590029699077
 30
0.0
 11
164.8845821696224
 21
170.6590029699077
 31
0.0
  0
LINE
  5
23A
330
1F
100
AcDbEntity
  8
0
  6
Continuous
 62
     7
100
AcDbLine
 10
164.8845821696224
 20
169.9254883351334
 30
0.0
 11
164.7049085122163
 21
169.7590029699076
 31
0.0
  0
LINE
  5
23B
330
1F
100
AcDbEntity
  8
0
  6
Continuous
 62
     2
100
AcDbLine
 10
158.6447453409192
 20
167.0590029699078
 30
0.0
 11
164.8845821696224
 21
167.0590029699078
 31
0.0
  0
LINE
  5
23C
330
1F
100
AcDbEntity
  8
0
  6
Continuous
 62
     2
100
AcDbLine
 10
158.6447453409192
 20
166.3254883351333
 30
0.0
 11
164.8845821696224
 21
166.3254883351333
 31
0.0
  0
LINE
  5
23D
330
1F
100
AcDbEntity
  8
0
  6
Continuous
 62
     2
100
AcDbLine
 10
158.6447453409192
 20
166.1590029699077
 30
0.0
 11
164.7049085122163
 21
166.1590029699077
 31
0.0
  0
LINE
  5
23E
330
1F
100
AcDbEntity
  8
0
  6
Continuous
 62
     2
100
AcDbLine
 10
158.6447453409192
 20
165.2590029699076
 30
0.0
 11
164.8845821696224
 21
165.2590029699076
 31
0.0
  0
LINE
  5
23F
330
1F
100
AcDbEntity
  8
0
  6
Continuous
 62
     2
100
AcDbLine
 10
158.6447453409192
 20
168.8590029699078
 30
0.0
 11
164.8845821696224
 21
168.8590029699078
 31
0.0
  0
LINE
  5
240
330
1F
100
AcDbEntity
  8
0
  6
Continuous
 62
     2
100
AcDbLine
 10
158.6447453409192
 20
167.2254883351334
 30
0.0
 11
164.7049085122163
 21
167.2254883351334
 31
0.0
  0
LINE
  5
241
330
1F
100
AcDbEntity
  8
0
  6
Continuous
 62
     2
100
AcDbLine
 10
158.6447453409192
 20
165.4254883351334
 30
0.0
 11
164.7049085122163
 21
165.4254883351334
 31
0.0
  0
LINE
  5
242
330
1F
100
AcDbEntity
  8
0
  6
Continuous
 62
     2
100
AcDbLine
 10
158.6447453409192
 20
169.0254883351333
 30
0.0
 11
164.7049085122163
 21
169.0254883351333
 31
0.0
  0
LINE
  5
243
330
1F
100
AcDbEntity
  8
0
  6
Continuous
 62
     2
100
AcDbLine
 10
158.5197453409192
 20
157.8922456525206
 30
0.0
 11
158.5197453409192
 21
152.8922456525206
 31
0.0
  0
LINE
  5
244
330
1F
100
AcDbEntity
  8
0
  6
Continuous
 62
     2
100
AcDbLine
 10
158.6447453409192
 20
170.8254883351333
 30
0.0
 11
164.7049085122163
 21
170.8254883351333
 31
0.0
  0
LINE
  5
245
330
1F
100
AcDbEntity
  8
0
  6
Continuous
 62
     7
100
AcDbLine
 10
164.8845821696224
 20
167.0590029699078
 30
0.0
 11
164.7049085122163
 21
167.2254883351334
 31
0.0
  0
LINE
  5
246
330
1F
100
AcDbEntity
  8
0
  6
Continuous
 62
     7
100
AcDbLine
 10
164.8845821696224
 20
168.8590029699078
 30
0.0
 11
164.7049085122163
 21
169.0254883351333
 31
0.0
  0
LINE
  5
247
330
1F
100
AcDbEntity
  8
0
  6
Continuous
 62
     7
100
AcDbLine
 10
165.1197453409191
 20
193.6312209767068
 30
0.0
 11
165.1197453409191
 21
190.6601792522167
 31
0.0
  0
LINE
  5
248
330
1F
100
AcDbEntity
  8
0
  6
Continuous
 62
     7
100
AcDbLine
 10
165.1197453409191
 20
190.6601792522167
 30
0.0
 11
164.9197453409193
 21
190.6601792522167
 31
0.0
  0
LINE
  5
249
330
1F
100
AcDbEntity
  8
0
  6
Continuous
 62
     7
100
AcDbLine
 10
162.9197453409193
 20
180.8922456525206
 30
0.0
 11
165.0447453409193
 21
180.8922456525206
 31
0.0
  0
LINE
  5
24A
330
1F
100
AcDbEntity
  8
0
  6
Continuous
 62
     7
100
AcDbLine
 10
162.1458957432224
 20
180.8922456525206
 30
0.0
 11
162.9197453409193
 21
180.8922456525206
 31
0.0
  0
LINE
  5
24B
330
1F
100
AcDbEntity
  8
0
  6
Continuous
 62
     2
100
AcDbLine
 10
158.6447453409192
 20
172.0922456525206
 30
0.0
 11
165.0447453409193
 21
172.0922456525206
 31
0.0
  0
LINE
  5
24C
330
1F
100
AcDbEntity
  8
0
  6
Continuous
 62
     7
100
AcDbLine
 10
164.9197453409193
 20
193.6312209767068
 30
0.0
 11
164.9197453409193
 21
190.6601792522167
 31
0.0
  0
LINE
  5
24D
330
1F
100
AcDbEntity
  8
0
  6
Continuous
 62
     2
100
AcDbLine
 10
160.4835313335962
 20
181.8993008886029
 30
0.0
 11
162.9197453409193
 21
181.8993008886025
 31
0.0
  0
LINE
  5
24E
330
1F
100
AcDbEntity
  8
0
  6
Continuous
 62
     7
100
AcDbLine
 10
164.9197453409193
 20
190.6601792522167
 30
0.0
 11
164.9197453409193
 21
186.8922456525206
 31
0.0
  0
LINE
  5
24F
330
1F
100
AcDbEntity
  8
0
  6
Continuous
 62
     7
100
AcDbLine
 10
165.1197453409191
 20
194.150932328336
 30
0.0
 11
165.1197453409191
 21
193.6312209767068
 31
0.0
  0
LINE
  5
250
330
1F
100
AcDbEntity
  8
0
  6
Continuous
 62
     7
100
AcDbLine
 10
165.0447453409193
 20
163.8922456525206
 30
0.0
 11
165.0447453409193
 21
164.8922456525206
 31
0.0
  0
LINE
  5
251
330
1F
100
AcDbEntity
  8
0
  6
Continuous
 62
     7
100
AcDbLine
 10
165.0447453409193
 20
162.0392932652769
 30
0.0
 11
165.0447453409193
 21
163.8922456525206
 31
0.0
  0
LINE
  5
252
330
1F
100
AcDbEntity
  8
0
  6
Continuous
 62
     7
100
AcDbLine
 10
165.0447453409193
 20
180.8922456525206
 30
0.0
 11
165.1197453409191
 21
180.8922456525206
 31
0.0
  0
LINE
  5
253
330
1F
100
AcDbEntity
  8
0
  6
Continuous
 62
     7
100
AcDbLine
 10
165.0447453409193
 20
172.0922456525206
 30
0.0
 11
165.0447453409193
 21
180.8922456525206
 31
0.0
  0
LINE
  5
254
330
1F
100
AcDbEntity
  8
0
  6
Continuous
 62
     7
100
AcDbLine
 10
165.9197453409193
 20
185.8922456525205
 30
0.0
 11
164.9197453409193
 21
186.8922456525206
 31
0.0
  0
LINE
  5
255
330
1F
100
AcDbEntity
  8
0
  6
Continuous
 62
     7
100
AcDbLine
 10
164.9197453409193
 20
200.8922456525205
 30
0.0
 11
165.9197453409193
 21
201.8922456525206
 31
0.0
  0
LINE
  5
256
330
1F
100
AcDbEntity
  8
0
  6
Continuous
 62
     7
100
AcDbLine
 10
137.4197453409196
 20
163.8922456525206
 30
0.0
 11
137.4197453409196
 21
163.3922456525206
 31
0.0
  0
LINE
  5
257
330
1F
100
AcDbEntity
  8
0
  6
Continuous
 62
     7
100
AcDbLine
 10
138.2947453409196
 20
163.8922456525206
 30
0.0
 11
138.2947453409196
 21
164.8922456525206
 31
0.0
  0
LINE
  5
258
330
1F
100
AcDbEntity
  8
0
  6
Continuous
 62
     7
100
AcDbLine
 10
138.2947453409196
 20
163.8922456525206
 30
0.0
 11
137.4197453409196
 21
163.8922456525206
 31
0.0
  0
LINE
  5
259
330
1F
100
AcDbEntity
  8
0
  6
Continuous
 62
     7
100
AcDbLine
 10
137.4197453409196
 20
161.3922456525206
 30
0.0
 11
137.4197453409196
 21
157.8922456525206
 31
0.0
  0
LINE
  5
25A
330
1F
100
AcDbEntity
  8
0
  6
Continuous
 62
     7
100
AcDbLine
 10
137.4197453409196
 20
162.0392932652769
 30
0.0
 11
137.4197453409196
 21
161.3922456525206
 31
0.0
  0
LINE
  5
25B
330
1F
100
AcDbEntity
  8
0
  6
Continuous
 62
     7
100
AcDbLine
 10
134.2697453409195
 20
161.3922456525206
 30
0.0
 11
134.2697453409195
 21
163.3922456525206
 31
0.0
  0
LINE
  5
25C
330
1F
100
AcDbEntity
  8
0
  6
Continuous
 62
     2
100
AcDbLine
 10
134.2697453409195
 20
161.3922456525206
 30
0.0
 11
137.4197453409196
 21
161.3922456525206
 31
0.0
  0
LINE
  5
25D
330
1F
100
AcDbEntity
  8
0
  6
Continuous
 62
     7
100
AcDbLine
 10
134.2697453409195
 20
163.3922456525206
 30
0.0
 11
137.4197453409196
 21
163.3922456525206
 31
0.0
  0
LINE
  5
25E
330
1F
100
AcDbEntity
  8
0
  6
Continuous
 62
     7
100
AcDbLine
 10
137.4197453409196
 20
157.8922456525206
 30
0.0
 11
134.2697453409195
 21
161.3922456525206
 31
0.0
  0
LINE
  5
25F
330
1F
100
AcDbEntity
  8
0
  6
Continuous
 62
     7
100
AcDbLine
 10
137.4197453409196
 20
163.3922456525206
 30
0.0
 11
137.4197453409196
 21
162.0392932652769
 31
0.0
  0
LINE
  5
260
330
1F
100
AcDbEntity
  8
1
  6
Continuous
 62
     7
100
AcDbLine
 10
146.4479883461116
 20
206.8906077838323
 30
0.0
 11
156.8883010395772
 21
206.8906077838323
 31
0.0
  0
LINE
  5
261
330
1F
100
AcDbEntity
  8
0
  6
Continuous
 62
     7
100
AcDbLine
 10
97.10139350229676
 20
207.227050990464
 30
0.0
 11
102.381302022389
 21
187.522164134167
 31
0.0
  0
LINE
  5
262
330
1F
100
AcDbEntity
  8
1
  6
Continuous
 62
     2
100
AcDbLine
 10
97.10139350229676
 20
207.227050990464
 30
0.0
 11
87.92509815255104
 21
204.7682700619902
 31
0.0
  0
LINE
  5
263
330
1F
100
AcDbEntity
  8
0
  6
Continuous
 62
     7
100
AcDbLine
 10
102.381302022389
 20
187.522164134167
 30
0.0
 11
102.6271801152364
 21
186.6045345991924
 31
0.0
  0
LINE
  5
264
330
1F
100
AcDbEntity
  8
1
  6
Continuous
 62
     7
100
AcDbLine
 10
87.67922005970362
 20
205.6858995969648
 30
0.0
 11
93.45088476549003
 21
184.1457536707186
 31
0.0
  0
LINE
  5
265
330
1F
100
AcDbEntity
  8
0
  6
Continuous
 62
     7
100
AcDbLine
 10
87.67922005970362
 20
205.6858995969648
 30
0.0
 11
96.85551540944934
 21
208.1446805254386
 31
0.0
  0
LINE
  5
266
330
1F
100
AcDbEntity
  8
0
  6
Continuous
 62
     7
100
AcDbLine
 10
93.45088476549003
 20
184.1457536707186
 30
0.0
 11
102.6271801152364
 21
186.6045345991924
 31
0.0
  0
LINE
  5
267
330
1F
100
AcDbEntity
  8
1
  6
Continuous
 62
     2
100
AcDbLine
 10
93.20500667264261
 20
185.0633832056932
 30
0.0
 11
102.381302022389
 21
187.522164134167
 31
0.0
  0
LINE
  5
268
330
1F
100
AcDbEntity
  8
1
  6
DOT_CENTER
 62
     2
100
AcDbLine
 10
87.11522916437238
 20
193.9914492804499
 30
0.0
 11
104.2261210464532
 21
198.5762989420295
 31
0.0
  0
LINE
  5
269
330
1F
100
AcDbEntity
  8
0
  6
Continuous
 62
     7
100
AcDbLine
 10
92.00199602605639
 20
183.7575251030648
 30
0.0
 11
86.39886285264024
 21
204.6687027878281
 31
0.0
  0
LINE
  5
26A
330
1F
100
AcDbEntity
  8
0
  6
Continuous
 62
     7
100
AcDbLine
 10
91.75611793320897
 20
184.6751546380395
 30
0.0
 11
93.20500667264261
 21
185.0633832056932
 31
0.0
  0
ARC
  5
26B
330
1F
100
AcDbEntity
  8
0
  6
Continuous
 62
     2
100
AcDbCircle
 10
64.76985642118333
 20
193.8910766525214
 30
0.0
 40
0.3000000000001304
100
AcDbArc
 50
119.9816393688826
 51
240.0183606311174
  0
ARC
  5
26C
330
1F
100
AcDbEntity
  8
0
  6
Continuous
 62
     2
100
AcDbCircle
 10
64.76985642118333
 20
193.8910766525214
 30
0.0
 40
0.1000000000000302
100
AcDbArc
 50
119.9816393688368
 51
240.0183606311631
  0
ARC
  5
26D
330
1F
100
AcDbEntity
  8
0
  6
Continuous
 62
     7
100
AcDbCircle
 10
56.03840530806528
 20
203.8922456525206
 30
0.0
 40
3.0
100
AcDbArc
 50
90.0
 51
165.0000000000048
  0
ARC
  5
26E
330
1F
100
AcDbEntity
  8
0
  6
Continuous
 62
     7
100
AcDbCircle
 10
47.26974534091923
 20
168.4922456525205
 30
0.0
 40
0.4999999999999133
100
AcDbArc
 50
132.8181467429793
 51
180.0
  0
ARC
  5
26F
330
1F
100
AcDbEntity
  8
0
  6
Continuous
 62
     7
100
AcDbCircle
 10
47.26974534091923
 20
170.2922456525205
 30
0.0
 40
0.49999999999983
100
AcDbArc
 50
132.8181467429882
 51
180.0
  0
ARC
  5
270
330
1F
100
AcDbEntity
  8
0
  6
Continuous
 62
     7
100
AcDbCircle
 10
47.26974534091923
 20
172.0922456525206
 30
0.0
 40
0.5
100
AcDbArc
 50
180.0
 51
227.1818532570118
  0
ARC
  5
271
330
1F
100
AcDbEntity
  8
0
  6
Continuous
 62
     7
100
AcDbCircle
 10
47.26974534091923
 20
166.6922456525205
 30
0.0
 40
0.4999999999998925
100
AcDbArc
 50
132.8181467429815
 51
180.0
  0
ARC
  5
272
330
1F
100
AcDbEntity
  8
0
  6
Continuous
 62
     7
100
AcDbCircle
 10
47.26974534091923
 20
168.4922456525205
 30
0.0
 40
0.5
100
AcDbArc
 50
180.0
 51
227.1818532570185
  0
ARC
  5
273
330
1F
100
AcDbEntity
  8
0
  6
Continuous
 62
     7
100
AcDbCircle
 10
47.26974534091923
 20
170.2922456525205
 30
0.0
 40
0.5
100
AcDbArc
 50
180.0
 51
227.1818532570051
  0
ARC
  5
274
330
1F
100
AcDbEntity
  8
0
  6
Continuous
 62
     7
100
AcDbCircle
 10
47.26974534091923
 20
166.6922456525205
 30
0.0
 40
0.5
100
AcDbArc
 50
180.0
 51
227.181853257014
  0
ARC
  5
275
330
1F
100
AcDbEntity
  8
0
  6
Continuous
 62
     7
100
AcDbCircle
 10
46.76974534091923
 20
167.5922456525206
 30
0.0
 40
0.4999999999999845
100
AcDbArc
 50
312.8181467430073
 51
47.18185325698386
  0
ARC
  5
276
330
1F
100
AcDbEntity
  8
0
  6
Continuous
 62
     7
100
AcDbCircle
 10
46.76974534091923
 20
169.3922456525206
 30
0.0
 40
0.500000000000047
100
AcDbArc
 50
312.8181467430006
 51
47.18185325697942
  0
ARC
  5
277
330
1F
100
AcDbEntity
  8
0
  6
Continuous
 62
     7
100
AcDbCircle
 10
46.76974534091923
 20
171.1922456525205
 30
0.0
 40
0.5000000000000053
100
AcDbArc
 50
312.8181467430051
 51
47.18185325699935
  0
ARC
  5
278
330
1F
100
AcDbEntity
  8
0
  6
Continuous
 62
     2
100
AcDbCircle
 10
69.56974534091941
 20
191.6298842487285
 30
0.0
 40
0.2000000000001002
100
AcDbArc
 50
240.0183606310945
 51
60.01836063116315
  0
ARC
  5
279
330
1F
100
AcDbEntity
  8
0
  6
Continuous
 62
     7
100
AcDbCircle
 10
47.26974534091923
 20
164.8922456525206
 30
0.0
 40
0.499999999999922
100
AcDbArc
 50
132.8181467430139
 51
180.0
  0
ARC
  5
27A
330
1F
100
AcDbEntity
  8
0
  6
Continuous
 62
     7
100
AcDbCircle
 10
69.76974534091923
 20
161.3922456525206
 30
0.0
 40
2.0
100
AcDbArc
 50
0.0
 51
180.0
  0
ARC
  5
27B
330
1F
100
AcDbEntity
  8
0
  6
Continuous
 62
     7
100
AcDbCircle
 10
69.76974534091923
 20
161.3922456525206
 30
0.0
 40
2.49999999999941
100
AcDbArc
 50
15.00000000000416
 51
165.0000000000012
  0
ARC
  5
27C
330
1F
100
AcDbEntity
  8
0
  6
Continuous
 62
     7
100
AcDbCircle
 10
46.76974534091923
 20
165.7922456525205
 30
0.0
 40
0.499999999999922
100
AcDbArc
 50
312.8181467430139
 51
47.18185325699271
  0
ARC
  5
27D
330
1F
100
AcDbEntity
  8
0
  6
Continuous
 62
     7
100
AcDbCircle
 10
92.26974534091923
 20
172.0922456525206
 30
0.0
 40
0.4999999999999845
100
AcDbArc
 50
312.8181467430073
 51
0.0
  0
ARC
  5
27E
330
1F
100
AcDbEntity
  8
0
  6
Continuous
 62
     7
100
AcDbCircle
 10
92.26974534091923
 20
168.4922456525205
 30
0.0
 40
0.4999999999999011
100
AcDbArc
 50
312.8181467430161
 51
0.0
  0
ARC
  5
27F
330
1F
100
AcDbEntity
  8
0
  6
Continuous
 62
     7
100
AcDbCircle
 10
92.26974534091923
 20
166.6922456525205
 30
0.0
 40
0.5
100
AcDbArc
 50
0.0
 51
47.18185325699935
  0
ARC
  5
280
330
1F
100
AcDbEntity
  8
0
  6
Continuous
 62
     7
100
AcDbCircle
 10
92.76974534091923
 20
167.5922456525206
 30
0.0
 40
0.4999999999997466
100
AcDbArc
 50
132.818146742997
 51
227.1818532570118
  0
ARC
  5
281
330
1F
100
AcDbEntity
  8
0
  6
Continuous
 62
     7
100
AcDbCircle
 10
92.76974534091923
 20
171.1922456525205
 30
0.0
 40
0.4999999999998925
100
AcDbArc
 50
132.8181467429815
 51
227.181853257014
  0
ARC
  5
282
330
1F
100
AcDbEntity
  8
0
  6
Continuous
 62
     7
100
AcDbCircle
 10
92.26974534091923
 20
170.2922456525205
 30
0.0
 40
0.5
100
AcDbArc
 50
0.0
 51
47.18185325699271
  0
ARC
  5
283
330
1F
100
AcDbEntity
  8
0
  6
Continuous
 62
     7
100
AcDbCircle
 10
92.26974534091923
 20
168.4922456525205
 30
0.0
 40
0.5
100
AcDbArc
 50
0.0
 51
47.18185325700156
  0
ARC
  5
284
330
1F
100
AcDbEntity
  8
0
  6
Continuous
 62
     7
100
AcDbCircle
 10
92.26974534091923
 20
170.2922456525205
 30
0.0
 40
0.499999999999922
100
AcDbArc
 50
312.8181467430139
 51
0.0
  0
ARC
  5
285
330
1F
100
AcDbEntity
  8
0
  6
Continuous
 62
     7
100
AcDbCircle
 10
92.76974534091923
 20
169.3922456525206
 30
0.0
 40
0.4999999999997048
100
AcDbArc
 50
132.8181467430015
 51
227.1818532570185
  0
ARC
  5
286
330
1F
100
AcDbEntity
  8
0
  6
Continuous
 62
     7
100
AcDbCircle
 10
92.26974534091923
 20
164.8922456525206
 30
0.0
 40
0.5
100
AcDbArc
 50
0.0
 51
47.18185325697942
  0
ARC
  5
287
330
1F
100
AcDbEntity
  8
0
  6
Continuous
 62
     7
100
AcDbCircle
 10
92.26974534091923
 20
166.6922456525205
 30
0.0
 40
0.5000000000000053
100
AcDbArc
 50
312.8181467430051
 51
0.0
  0
ARC
  5
288
330
1F
100
AcDbEntity
  8
0
  6
Continuous
 62
     7
100
AcDbCircle
 10
92.76974534091923
 20
165.7922456525205
 30
0.0
 40
0.49999999999983
100
AcDbArc
 50
132.8181467429882
 51
227.1818532570051
  0
ARC
  5
289
330
1F
100
AcDbEntity
  8
0
  6
Continuous
 62
     7
100
AcDbCircle
 10
91.7271650426463
 20
181.6922456525205
 30
0.0
 40
0.7999999999999261
100
AcDbArc
 50
270.0
 51
15.00000000000176
  0
ARC
  5
28A
330
1F
100
AcDbEntity
  8
0
  6
Continuous
 62
     2
100
AcDbCircle
 10
68.96974534091927
 20
192.8996276961011
 30
0.0
 40
0.2000000000000455
100
AcDbArc
 50
180.0
 51
0.0
  0
ARC
  5
28B
330
1F
100
AcDbEntity
  8
0
  6
Continuous
 62
     2
100
AcDbCircle
 10
72.16974534091932
 20
193.8910766525214
 30
0.0
 40
0.2000000000001023
100
AcDbArc
 50
270.0
 51
90.0
  0
ARC
  5
28C
330
1F
100
AcDbEntity
  8
0
  6
Continuous
 62
     2
100
AcDbCircle
 10
69.76974534091923
 20
194.0910766525214
 30
0.0
 40
0.1000000000003115
100
AcDbArc
 50
209.9999999998293
 51
329.9999999999753
  0
ARC
  5
28D
330
1F
100
AcDbEntity
  8
0
  6
Continuous
 62
     2
100
AcDbCircle
 10
74.76963426065535
 20
193.8910766525214
 30
0.0
 40
0.2999999999995623
100
AcDbArc
 50
299.9816393686946
 51
60.01836063130546
  0
ARC
  5
28E
330
1F
100
AcDbEntity
  8
0
  6
Continuous
 62
     2
100
AcDbCircle
 10
70.56974534091941
 20
191.9760380948826
 30
0.0
 40
0.2000000000000455
100
AcDbArc
 50
180.0
 51
0.0
  0
ARC
  5
28F
330
1F
100
AcDbEntity
  8
0
  6
Continuous
 62
     2
100
AcDbCircle
 10
72.16974534091932
 20
192.8991150179595
 30
0.0
 40
0.2000000000000604
100
AcDbArc
 50
299.9816393688369
 51
119.9816393688775
  0
ARC
  5
290
330
1F
100
AcDbEntity
  8
0
  6
Continuous
 62
     2
100
AcDbCircle
 10
71.36974534091937
 20
192.4375765564209
 30
0.0
 40
0.2000000000000455
100
AcDbArc
 50
180.0
 51
299.9816393686234
  0
ARC
  5
291
330
1F
100
AcDbEntity
  8
0
  6
Continuous
 62
     2
100
AcDbCircle
 10
72.16974534091932
 20
194.8830382870835
 30
0.0
 40
0.1999999999999865
100
AcDbArc
 50
240.018360631151
 51
60.01836063116315
  0
ARC
  5
292
330
1F
100
AcDbEntity
  8
0
  6
Continuous
 62
     2
100
AcDbCircle
 10
74.76963426065535
 20
193.8910766525214
 30
0.0
 40
0.0999999999995757
100
AcDbArc
 50
299.9816393683855
 51
60.01836063161453
  0
ARC
  5
293
330
1F
100
AcDbEntity
  8
0
  6
Continuous
 62
     7
100
AcDbCircle
 10
83.5010853737734
 20
203.8922456525206
 30
0.0
 40
2.999999999999623
100
AcDbArc
 50
15.00000000000089
 51
27.53593837997145
  0
ARC
  5
294
330
1F
100
AcDbEntity
  8
0
  6
Continuous
 62
     7
100
AcDbCircle
 10
83.5010853737734
 20
203.8922456525206
 30
0.0
 40
2.999999999999413
100
AcDbArc
 50
27.53593837997145
 51
90.0
  0
ARC
  5
295
330
1F
100
AcDbEntity
  8
0
  6
Continuous
 62
     2
100
AcDbCircle
 10
68.9287250684043
 20
195.8298070397422
 30
0.0
 40
0.158979727485379
100
AcDbArc
 50
29.99999999996045
 51
180.0
  0
ARC
  5
296
330
1F
100
AcDbEntity
  8
0
  6
Continuous
 62
     2
100
AcDbCircle
 10
70.61076561343438
 20
195.8298070397422
 30
0.0
 40
0.1589797274848479
100
AcDbArc
 50
0.0
 51
150.0000000000396
  0
ARC
  5
297
330
1F
100
AcDbEntity
  8
0
  6
Continuous
 62
     2
100
AcDbCircle
 10
71.36974534091937
 20
195.3445767486219
 30
0.0
 40
0.1999999999995321
100
AcDbArc
 50
60.01836063137662
 51
180.0
  0
ARC
  5
298
330
1F
100
AcDbEntity
  8
0
  6
Continuous
 62
     2
100
AcDbCircle
 10
68.16974534091932
 20
195.3445767486219
 30
0.0
 40
0.2000000000000455
100
AcDbArc
 50
0.0
 51
180.0
  0
ARC
  5
299
330
1F
100
AcDbEntity
  8
0
  6
Continuous
 62
     2
100
AcDbCircle
 10
67.36974534091937
 20
192.8991150179595
 30
0.0
 40
0.2000000000000455
100
AcDbArc
 50
180.0
 51
0.0
  0
ARC
  5
29A
330
1F
100
AcDbEntity
  8
0
  6
Continuous
 62
     2
100
AcDbCircle
 10
68.36974534091937
 20
192.5530893413411
 30
0.0
 40
0.4000000000000909
100
AcDbArc
 50
180.0
 51
240.0183606311288
  0
ARC
  5
29B
330
1F
100
AcDbEntity
  8
0
  6
Continuous
 62
     2
100
AcDbCircle
 10
67.36974534091937
 20
194.8830382870835
 30
0.0
 40
0.2000000000000455
100
AcDbArc
 50
0.0
 51
180.0
  0
ARC
  5
29C
330
1F
100
AcDbEntity
  8
0
  6
Continuous
 62
     7
100
AcDbCircle
 10
47.81232563919238
 20
181.6922456525205
 30
0.0
 40
0.8000000000007184
100
AcDbArc
 50
165.0000000000151
 51
270.0
  0
ARC
  5
29D
330
1F
100
AcDbEntity
  8
0
  6
Continuous
 62
     7
100
AcDbCircle
 10
138.7947453409196
 20
168.4922456525205
 30
0.0
 40
0.5000000000001258
100
AcDbArc
 50
132.8181467430056
 51
227.1818532569767
  0
ARC
  5
29E
330
1F
100
AcDbEntity
  8
0
  6
Continuous
 62
     7
100
AcDbCircle
 10
138.7947453409196
 20
172.0922456525206
 30
0.0
 40
0.5
100
AcDbArc
 50
180.0
 51
227.1818532569855
  0
ARC
  5
29F
330
1F
100
AcDbEntity
  8
0
  6
Continuous
 62
     7
100
AcDbCircle
 10
138.7947453409196
 20
170.2922456525205
 30
0.0
 40
0.5000000000000424
100
AcDbArc
 50
132.8181467430145
 51
227.1818532569789
  0
ARC
  5
2A0
330
1F
100
AcDbEntity
  8
0
  6
Continuous
 62
     7
100
AcDbCircle
 10
138.2947453409196
 20
167.5922456525206
 30
0.0
 40
0.4999999999999651
100
AcDbArc
 50
312.8181467430049
 51
47.18185325698624
  0
ARC
  5
2A1
330
1F
100
AcDbEntity
  8
0
  6
Continuous
 62
     7
100
AcDbCircle
 10
138.2947453409196
 20
165.7922456525205
 30
0.0
 40
0.4999999999999026
100
AcDbArc
 50
312.8181467430115
 51
47.18185325699509
  0
ARC
  5
2A2
330
1F
100
AcDbEntity
  8
0
  6
Continuous
 62
     7
100
AcDbCircle
 10
138.7947453409196
 20
166.6922456525205
 30
0.0
 40
0.5000000000001049
100
AcDbArc
 50
132.8181467430078
 51
227.1818532569877
  0
ARC
  5
2A3
330
1F
100
AcDbEntity
  8
0
  6
Continuous
 62
     7
100
AcDbCircle
 10
138.2947453409196
 20
169.3922456525206
 30
0.0
 40
0.5000000000000276
100
AcDbArc
 50
312.8181467429982
 51
47.18185325698181
  0
ARC
  5
2A4
330
1F
100
AcDbEntity
  8
0
  6
Continuous
 62
     7
100
AcDbCircle
 10
138.2947453409196
 20
171.1922456525205
 30
0.0
 40
0.499999999999986
100
AcDbArc
 50
312.8181467430027
 51
47.18185325700173
  0
ARC
  5
2A5
330
1F
100
AcDbEntity
  8
0
  6
Continuous
 62
     7
100
AcDbCircle
 10
138.2197453409197
 20
181.6922456525205
 30
0.0
 40
0.8000000000000966
100
AcDbArc
 50
180.0
 51
270.0
  0
ARC
  5
2A6
330
1F
100
AcDbEntity
  8
0
  6
Continuous
 62
     7
100
AcDbCircle
 10
138.7947453409196
 20
164.8922456525206
 30
0.0
 40
0.4999999999999173
100
AcDbArc
 50
132.8181467430278
 51
180.0
  0
ARC
  5
2A7
330
1F
100
AcDbEntity
  8
0
  6
Continuous
 62
     7
100
AcDbCircle
 10
140.4197453409196
 20
203.8922456525206
 30
0.0
 40
3.0
100
AcDbArc
 50
90.0
 51
180.0
  0
ARC
  5
2A8
330
1F
100
AcDbEntity
  8
0
  6
Continuous
 62
     7
100
AcDbCircle
 10
164.5447453409193
 20
166.6922456525205
 30
0.0
 40
0.5000000000000633
100
AcDbArc
 50
312.8181467430123
 51
47.18185325699218
  0
ARC
  5
2A9
330
1F
100
AcDbEntity
  8
0
  6
Continuous
 62
     7
100
AcDbCircle
 10
164.5447453409193
 20
172.0922456525206
 30
0.0
 40
0.5000000000000424
100
AcDbArc
 50
312.8181467430144
 51
0.0
  0
ARC
  5
2AA
330
1F
100
AcDbEntity
  8
0
  6
Continuous
 62
     7
100
AcDbCircle
 10
164.5447453409193
 20
170.2922456525205
 30
0.0
 40
0.4999999999999799
100
AcDbArc
 50
312.8181467430211
 51
47.18185325698553
  0
ARC
  5
2AB
330
1F
100
AcDbEntity
  8
0
  6
Continuous
 62
     7
100
AcDbCircle
 10
164.5447453409193
 20
168.4922456525205
 30
0.0
 40
0.499999999999959
100
AcDbArc
 50
312.8181467430233
 51
47.18185325699439
  0
ARC
  5
2AC
330
1F
100
AcDbEntity
  8
0
  6
Continuous
 62
     7
100
AcDbCircle
 10
165.0447453409193
 20
169.3922456525206
 30
0.0
 40
0.4999999999998401
100
AcDbArc
 50
132.8181467430182
 51
227.1818532570018
  0
ARC
  5
2AD
330
1F
100
AcDbEntity
  8
0
  6
Continuous
 62
     7
100
AcDbCircle
 10
165.0447453409193
 20
167.5922456525206
 30
0.0
 40
0.4999999999998818
100
AcDbArc
 50
132.8181467430138
 51
227.1818532569951
  0
ARC
  5
2AE
330
1F
100
AcDbEntity
  8
0
  6
Continuous
 62
     7
100
AcDbCircle
 10
164.5447453409193
 20
164.8922456525206
 30
0.0
 40
0.5
100
AcDbArc
 50
0.0
 51
47.18185325697226
  0
ARC
  5
2AF
330
1F
100
AcDbEntity
  8
0
  6
Continuous
 62
     7
100
AcDbCircle
 10
165.0447453409193
 20
171.1922456525205
 30
0.0
 40
0.5000000000000276
100
AcDbArc
 50
132.8181467429983
 51
227.1818532569973
  0
ARC
  5
2B0
330
1F
100
AcDbEntity
  8
0
  6
Continuous
 62
     7
100
AcDbCircle
 10
165.0447453409193
 20
165.7922456525205
 30
0.0
 40
0.4999999999999651
100
AcDbArc
 50
132.8181467430049
 51
227.1818532569884
  0
ARC
  5
2B1
330
1F
100
AcDbEntity
  8
0
  6
Continuous
 62
     7
100
AcDbCircle
 10
165.1197453409191
 20
181.6922456525205
 30
0.0
 40
0.7999999999999261
100
AcDbArc
 50
270.0
 51
0.0
  0
ARC
  5
2B2
330
1F
100
AcDbEntity
  8
0
  6
Continuous
 62
     7
100
AcDbCircle
 10
162.9197453409193
 20
203.8922456525206
 30
0.0
 40
3.0
100
AcDbArc
 50
0.0
 51
90.0
  0
SPLINE
  5
2B3
330
1F
100
AcDbEntity
  8
0
  6
Continuous
 62
     7
100
AcDbSpline
210
0.0
220
0.0
230
1.0
 70
     8
 71
     3
 72
    11
 73
     7
 74
     5
 42
0.000000001
 43
0.0000000001
 44
0.00000001
 40
0.0
 40
0.0
 40
0.0
 40
0.0
 40
0.5261685665115137
 40
1.05392522591474
 40
3.233529641273143
 40
5.418608349356555
 40
5.418608349356555
 40
5.418608349356555
 40
5.418608349356555
 10
156.8956856661212
 20
206.8884649153926
 30
0.0
 10
156.7384963266802
 20
206.966391200193
 30
0.0
 10
156.4236432094061
 20
207.122478955538
 30
0.0
 10
155.4312468694683
 20
207.5427738698796
 30
0.0
 10
153.856164548439
 20
208.0260970908735
 30
0.0
 10
152.3991608808257
 20
208.1051196821728
 30
0.0
 10
151.6697453409194
 20
208.1446805254386
 30
0.0
 11
156.8956856661212
 21
206.8884649153926
 31
0.0
 11
156.4219728634374
 21
207.1174835654028
 31
0.0
 11
155.9366656117898
 21
207.3248575365983
 31
0.0
 11
153.8450023282251
 21
207.9377360923995
 31
0.0
 11
151.6697453409194
 21
208.1446805254386
 31
0.0
  0
SPLINE
  5
2B4
330
1F
100
AcDbEntity
  8
0
  6
Continuous
 62
     7
100
AcDbSpline
210
0.0
220
0.0
230
1.0
 70
     8
 71
     3
 72
    11
 73
     7
 74
     5
 42
0.000000001
 43
0.0000000001
 44
0.00000001
 40
0.0
 40
0.0
 40
0.0
 40
0.0
 40
0.7309906745387229
 40
1.452362977207178
 40
2.152200428392114
 40
2.821427118721657
 40
2.821427118721657
 40
2.821427118721657
 40
2.821427118721657
 10
52.91960981588827
 20
200.8922456525206
 30
0.0
 10
53.11388206878084
 20
201.0403441954672
 30
0.0
 10
53.4998703496171
 20
201.3345925891715
 30
0.0
 10
54.1513522263126
 20
201.6440948590947
 30
0.0
 10
54.82209444043843
 20
201.8514647388144
 30
0.0
 10
55.27910887426619
 20
201.8788561668414
 30
0.0
 10
55.50250692320228
 20
201.8922456525206
 30
0.0
 11
52.91960981588827
 21
200.8922456525206
 31
0.0
 11
53.51601713519903
 21
201.3149106219284
 31
0.0
 11
54.16451923827728
 21
201.6308584400464
 31
0.0
 11
54.83655008905182
 21
201.8261710008701
 31
0.0
 11
55.50250692320228
 21
201.8922456525206
 31
0.0
  0
SPLINE
  5
2B5
330
1F
100
AcDbEntity
  8
0
  6
Continuous
 62
     2
100
AcDbSpline
210
0.0
220
0.0
230
1.0
 70
     8
 71
     3
 72
    15
 73
    11
 74
     9
 42
0.000000001
 43
0.0000000001
 44
0.00000001
 40
0.0
 40
0.0
 40
0.0
 40
0.0
 40
0.0935546504520074
 40
0.2794956199515866
 40
0.5663508142661926
 40
0.9466464559819596
 40
1.407189060293004
 40
1.931057478761378
 40
2.498640836102513
 40
3.088531663666414
 40
3.088531663666414
 40
3.088531663666414
 40
3.088531663666414
 10
92.4999057036774
 20
181.8993008886025
 30
0.0
 10
92.47604449939107
 20
181.9204548147894
 30
0.0
 10
92.40475888218502
 20
181.983652433774
 30
0.0
 10
92.20302201106159
 20
181.9813890983936
 30
0.0
 10
91.92498265734261
 20
181.9867840660749
 30
0.0
 10
91.54730975906912
 20
181.9553033883907
 30
0.0
 10
91.0957801160504
 20
181.9095832524194
 30
0.0
 10
90.5819827894177
 20
181.8460032544193
 30
0.0
 10
90.02654614389917
 20
181.7720315850318
 30
0.0
 10
89.644342358594
 20
181.7191804840624
 30
0.0
 10
89.44955744574426
 20
181.6922456525205
 30
0.0
 11
92.4999057036774
 21
181.8993008886025
 31
0.0
 11
92.42515443600607
 21
181.9555567363298
 31
0.0
 11
92.24118279266254
 21
181.982547072599
 31
0.0
 11
91.95432817920071
 21
181.9819700001101
 31
0.0
 11
91.57488086478446
 21
181.956582788175
 31
0.0
 11
91.11669039453398
 21
181.9100964112247
 31
0.0
 11
90.59663168481133
 21
181.8470324894713
 31
0.0
 11
90.03395667955135
 21
181.772549565744
 31
0.0
 11
89.44955744574426
 21
181.6922456525205
 31
0.0
  0
SPLINE
  5
2B6
330
1F
100
AcDbEntity
  8
0
  6
Continuous
 62
     7
100
AcDbSpline
210
0.0
220
0.0
230
1.0
 70
     8
 71
     3
 72
    11
 73
     7
 74
     5
 42
0.000000001
 43
0.0000000001
 44
0.00000001
 40
0.0
 40
0.0
 40
0.0
 40
0.0
 40
0.5616698755567644
 40
1.135640618277358
 40
1.735680579073331
 40
2.369680620723311
 40
2.369680620723311
 40
2.369680620723311
 40
2.369680620723311
 10
90.3711695599853
 20
186.8922456525206
 30
0.0
 10
90.2553304280094
 20
186.7435539255657
 30
0.0
 10
90.02111521489805
 20
186.4429140540944
 30
0.0
 10
89.52328699164315
 20
186.1296941837234
 30
0.0
 10
88.9487700953054
 20
185.9273495081086
 30
0.0
 10
88.53615556335907
 20
185.9041596566081
 30
0.0
 10
88.32417083753339
 20
185.8922456525206
 30
0.0
 11
90.3711695599853
 21
186.8922456525206
 31
0.0
 11
90.00126771511823
 21
186.4695806831125
 31
0.0
 11
89.5220815374698
 21
186.1536328649946
 31
0.0
 11
88.95471837258397
 21
185.958320304171
 31
0.0
 11
88.32417083753339
 21
185.8922456525206
 31
0.0
  0
SPLINE
  5
2B7
330
1F
100
AcDbEntity
  8
0
  6
Continuous
 62
     2
100
AcDbSpline
210
0.0
220
0.0
230
1.0
 70
    24
 71
     3
 72
    15
 73
    11
 74
     9
 42
0.000000001
 43
0.0000000001
 44
0.00000001
 40
0.0
 40
0.0
 40
0.0
 40
0.0
 40
0.1560722611552023
 40
0.3061467769387036
 40
0.4444561742909059
 40
0.5656854039209236
 40
0.6651756526254644
 40
0.7391036149994932
 40
0.7695518074997096
 40
0.7999999999999261
 40
0.7999999999999261
 40
0.7999999999999261
 40
0.7999999999999261
 10
89.44955744574426
 20
181.6922456525205
 30
0.0
 10
89.44955744574426
 20
181.6402215654688
 30
0.0
 10
89.44955744574423
 20
181.5381726398225
 30
0.0
 10
89.44955744574415
 20
181.3900205817256
 30
0.0
 10
89.44955744574406
 20
181.2534828674703
 30
0.0
 10
89.44955744574403
 20
181.1338065755747
 30
0.0
 10
89.44955744574405
 20
181.0355907620052
 30
0.0
 10
89.44955744574415
 20
180.9676352941456
 30
0.0
 10
89.44955744574423
 20
180.9226938450208
 30
0.0
 10
89.44955744574425
 20
180.9023950500207
 30
0.0
 10
89.44955744574426
 20
180.8922456525206
 30
0.0
 11
89.44955744574426
 21
181.6922456525205
 31
0.0
 11
89.44955744574426
 21
181.5361733913653
 31
0.0
 11
89.44955744574426
 21
181.3860988755818
 31
0.0
 11
89.44955744574425
 21
181.2477894782296
 31
0.0
 11
89.44955744574426
 21
181.1265602485996
 31
0.0
 11
89.44955744574426
 21
181.0270699998951
 31
0.0
 11
89.44955744574426
 21
180.953142037521
 31
0.0
 11
89.44955744574426
 21
180.9226938450208
 31
0.0
 11
89.44955744574426
 21
180.8922456525206
 31
0.0
  0
SPLINE
  5
2B8
330
1F
100
AcDbEntity
  8
0
  6
Continuous
 62
     7
100
AcDbSpline
210
0.0
220
0.0
230
1.0
 70
     8
 71
     3
 72
    11
 73
     7
 74
     5
 42
0.000000001
 43
0.0000000001
 44
0.00000001
 40
0.0
 40
0.0
 40
0.0
 40
0.0
 40
0.6692266903296232
 40
1.36906414151447
 40
2.090436444182938
 40
2.821427118721655
 40
2.821427118721655
 40
2.821427118721655
 40
2.821427118721655
 10
84.03698375863527
 20
201.8922456525206
 30
0.0
 10
84.26038180757142
 20
201.8788561668415
 30
0.0
 10
84.71739624139911
 20
201.8514647388143
 30
0.0
 10
85.38813845552497
 20
201.6440948590947
 30
0.0
 10
86.0396203322205
 20
201.3345925891715
 30
0.0
 10
86.42560861305668
 20
201.0403441954672
 30
0.0
 10
86.61988086594928
 20
200.8922456525206
 30
0.0
 11
84.03698375863527
 21
201.8922456525206
 31
0.0
 11
84.70294059278581
 21
201.8261710008701
 31
0.0
 11
85.37497144356027
 21
201.6308584400464
 31
0.0
 11
86.02347354663853
 21
201.3149106219284
 31
0.0
 11
86.61988086594928
 21
200.8922456525206
 31
0.0
  0
SPLINE
  5
2B9
330
1F
100
AcDbEntity
  8
0
  6
Continuous
 62
     2
100
AcDbSpline
210
0.0
220
0.0
230
1.0
 70
    24
 71
     3
 72
    18
 73
    14
 74
    12
 42
0.000000001
 43
0.0000000001
 44
0.00000001
 40
0.0
 40
0.0
 40
0.0
 40
0.0
 40
0.0304481925002165
 40
0.0608963850004329
 40
0.1451526173758282
 40
0.2343145960790878
 40
0.3263171083100644
 40
0.4047224092614954
 40
0.4938532230617056
 40
0.6052962396146029
 40
0.6780211922724675
 40
0.7351988545595134
 40
0.7999999999999261
 40
0.7999999999999261
 40
0.7999999999999261
 40
0.7999999999999261
 10
50.08993323609442
 20
180.8922456525206
 30
0.0
 10
50.08993323609442
 20
180.9023950500207
 30
0.0
 10
50.08993323609441
 20
180.9226938450208
 30
0.0
 10
50.08993323609442
 20
180.9710780508128
 30
0.0
 10
50.0899332360944
 20
181.0390335186724
 30
0.0
 10
50.08993323609436
 20
181.1275070931089
 30
0.0
 10
50.08993323609428
 20
181.2140303570708
 30
0.0
 10
50.08993323609425
 20
181.3005432327317
 30
0.0
 10
50.0899332360942
 20
181.3935362764998
 30
0.0
 10
50.08993323609419
 20
181.4846358708369
 30
0.0
 10
50.08993323609425
 20
181.5650844146694
 30
0.0
 10
50.0899332360943
 20
181.6299856681312
 30
0.0
 10
50.08993323609437
 20
181.6706452707071
 30
0.0
 10
50.08993323609442
 20
181.6922456525205
 30
0.0
 11
50.08993323609442
 21
180.8922456525206
 31
0.0
 11
50.08993323609442
 21
180.9226938450208
 31
0.0
 11
50.08993323609442
 21
180.953142037521
 31
0.0
 11
50.08993323609356
 21
181.0373982698964
 31
0.0
 11
50.08993323609442
 21
181.1265602485996
 31
0.0
 11
50.08993323609478
 21
181.2185627608305
 31
0.0
 11
50.08993323609429
 21
181.2969680617819
 31
0.0
 11
50.08993323609329
 21
181.3860988755821
 31
0.0
 11
50.08993323609308
 21
181.497541892135
 31
0.0
 11
50.08993323609351
 21
181.5702668447929
 31
0.0
 11
50.08993323609411
 21
181.62744450708
 31
0.0
 11
50.08993323609442
 21
181.6922456525205
 31
0.0
  0
SPLINE
  5
2BA
330
1F
100
AcDbEntity
  8
0
  6
Continuous
 62
     2
100
AcDbSpline
210
0.0
220
0.0
230
1.0
 70
     8
 71
     3
 72
    15
 73
    11
 74
     9
 42
0.000000001
 43
0.0000000001
 44
0.00000001
 40
0.0
 40
0.0
 40
0.0
 40
0.0
 40
0.5898908275640967
 40
1.157474184905928
 40
1.681342603374875
 40
2.141885207685203
 40
2.522180849400397
 40
2.809036043715786
 40
2.994977013215945
 40
3.088531663667738
 40
3.088531663667738
 40
3.088531663667738
 40
3.088531663667738
 10
50.08993323609442
 20
181.6922456525205
 30
0.0
 10
49.89514832324458
 20
181.7191804840621
 30
0.0
 10
49.51294453793896
 20
181.7720315850309
 30
0.0
 10
48.95750789242013
 20
181.846003254419
 30
0.0
 10
48.44371056578724
 20
181.9095832524199
 30
0.0
 10
47.99218092276878
 20
181.9553033883907
 30
0.0
 10
47.61450802449528
 20
181.9867840660743
 30
0.0
 10
47.33646867077641
 20
181.9813890983933
 30
0.0
 10
47.13473179965192
 20
181.9836524337753
 30
0.0
 10
47.06344618244639
 20
181.9204548147897
 30
0.0
 10
47.03958497816038
 20
181.8993008886025
 30
0.0
 11
50.08993323609442
 21
181.6922456525205
 31
0.0
 11
49.50553400228703
 21
181.7725495657433
 31
0.0
 11
48.94285899702641
 21
181.847032489471
 31
0.0
 11
48.42280028730326
 21
181.910096411225
 31
0.0
 11
47.96460981705346
 21
181.9565827881748
 31
0.0
 11
47.58516250263775
 21
181.9819700001096
 31
0.0
 11
47.29830788917513
 21
181.9825470725992
 31
0.0
 11
47.11433624583094
 21
181.9555567363304
 31
0.0
 11
47.03958497816038
 21
181.8993008886025
 31
0.0
  0
SPLINE
  5
2BB
330
1F
100
AcDbEntity
  8
0
  6
Continuous
 62
     7
100
AcDbSpline
210
0.0
220
0.0
230
1.0
 70
     8
 71
     3
 72
    11
 73
     7
 74
     5
 42
0.000000001
 43
0.0000000001
 44
0.00000001
 40
0.0
 40
0.0
 40
0.0
 40
0.0
 40
0.6340000416509549
 40
1.234040002447015
 40
1.80801074516727
 40
2.369680620724274
 40
2.369680620724274
 40
2.369680620724274
 40
2.369680620724274
 10
51.2153198443053
 20
185.8922456525206
 30
0.0
 10
51.00333511847927
 20
185.9041596566081
 30
0.0
 10
50.59072058653263
 20
185.9273495081085
 30
0.0
 10
50.01620369019454
 20
186.1296941837234
 30
0.0
 10
49.51837546694001
 20
186.4429140540948
 30
0.0
 10
49.28416025382837
 20
186.7435539255658
 30
0.0
 10
49.16832112185224
 20
186.8922456525206
 30
0.0
 11
51.2153198443053
 21
185.8922456525206
 31
0.0
 11
50.58477230925374
 21
185.958320304171
 31
0.0
 11
50.01740914436787
 21
186.1536328649947
 31
0.0
 11
49.53822296671984
 21
186.4695806831127
 31
0.0
 11
49.16832112185224
 21
186.8922456525206
 31
0.0
  0
SPLINE
  5
2BC
330
1F
100
AcDbEntity
  8
0
  6
Continuous
 62
     7
100
AcDbSpline
210
0.0
220
0.0
230
1.0
 70
     8
 71
     3
 72
    29
 73
    25
 74
    23
 42
0.000000001
 43
0.0000000001
 44
0.00000001
 40
0.0
 40
0.0
 40
0.0
 40
0.0
 40
0.2653234987067777
 40
0.5253763590938403
 40
0.6467052283609112
 40
0.7997408975418709
 40
0.942401941805749
 40
1.081112248042106
 40
1.209333434100884
 40
1.368383507693222
 40
1.509292052002816
 40
1.661139309685542
 40
1.722944724112407
 40
1.774950457167546
 40
1.837143555006493
 40
1.889699840983772
 40
1.952308620553742
 40
2.008367415265842
 40
2.06141086278636
 40
2.116740336926539
 40
2.152035006391608
 40
2.190660975779515
 40
2.226141999035941
 40
2.263936438737858
 40
2.263936438737858
 40
2.263936438737858
 40
2.263936438737858
 10
162.1458957432224
 20
180.8922456525206
 30
0.0
 10
162.0574278669587
 20
180.8958088116239
 30
0.0
 10
161.8822495248202
 20
180.9028643525839
 30
0.0
 10
161.6696300227544
 20
180.9419443298803
 30
0.0
 10
161.4963275391897
 20
180.9830730052504
 30
0.0
 10
161.3625163124563
 20
181.0209745264163
 30
0.0
 10
161.2249450492808
 20
181.0662676591793
 30
0.0
 10
161.0970715466492
 20
181.1142311936306
 30
0.0
 10
160.9662391591912
 20
181.1694980304827
 30
0.0
 10
160.8375359477622
 20
181.2314194647396
 30
0.0
 10
160.7061889117611
 20
181.3052682523382
 30
0.0
 10
160.608101699655
 20
181.3717138683062
 30
0.0
 10
160.5399582127018
 20
181.4283665774864
 30
0.0
 10
160.4974887312974
 20
181.4689004484275
 30
0.0
 10
160.4606582012698
 20
181.5106953916299
 30
0.0
 10
160.4270087427074
 20
181.5594635610971
 30
0.0
 10
160.4021700008464
 20
181.6112917279168
 30
0.0
 10
160.3892049991912
 20
181.6675724476066
 30
0.0
 10
160.3899788814521
 20
181.722895902583
 30
0.0
 10
160.4019482202362
 20
181.7696993275397
 30
0.0
 10
160.4193344578403
 20
181.8092083376826
 30
0.0
 10
160.4377607397425
 20
181.8407574479766
 30
0.0
 10
160.4593745519127
 20
181.8712218418093
 30
0.0
 10
160.4753113548148
 20
181.889746260022
 30
0.0
 10
160.4835313335962
 20
181.8993008886029
 30
0.0
 11
162.1458957432224
 21
180.8922456525206
 31
0.0
 11
161.8811166052416
 21
180.909232764837
 31
0.0
 11
161.6248175218303
 21
180.9532585521767
 31
0.0
 11
161.5067926171568
 21
180.9813800100818
 31
0.0
 11
161.3595187201591
 21
181.0229770689213
 31
0.0
 11
161.2240187256076
 21
181.0676080561717
 31
0.0
 11
161.0941619942001
 21
181.1163705249007
 31
0.0
 11
160.9760825191897
 21
181.1663496217836
 31
0.0
 11
160.8329150271084
 21
181.2356316187067
 31
0.0
 11
160.7103233437906
 21
181.3051046135672
 31
0.0
 11
160.5853652744723
 21
181.3913778454409
 31
0.0
 11
160.5379550225657
 21
181.4310285359558
 31
0.0
 11
160.5004308276044
 21
181.4670359109889
 31
0.0
 11
160.4595794318169
 21
181.5139309520047
 31
0.0
 11
160.4299871134473
 21
181.5573643249206
 31
0.0
 11
160.4035175866082
 21
181.6141025256315
 31
0.0
 11
160.3912877356762
 21
181.668811018606
 31
0.0
 11
160.3920089201724
 21
181.7218495631837
 31
0.0
 11
160.4053470630743
 21
181.7755472786857
 31
0.0
 11
160.4194578181726
 21
181.8078984809484
 31
0.0
 11
160.4387881600343
 21
181.8413395248392
 31
0.0
 11
160.459345897757
 21
181.8702580744872
 31
0.0
 11
160.4835313335962
 21
181.8993008886029
 31
0.0
  0
SPLINE
  5
2BD
330
1F
100
AcDbEntity
  8
0
  6
Continuous
 62
     7
100
AcDbSpline
210
0.0
220
0.0
230
1.0
 70
     8
 71
     3
 72
     9
 73
     5
 74
     3
 42
0.000000001
 43
0.0000000001
 44
0.00000001
 40
0.0
 40
0.0
 40
0.0
 40
0.0
 40
1.181403805947312
 40
2.144497250746881
 40
2.144497250746881
 40
2.144497250746881
 40
2.144497250746881
 10
160.4835313335962
 20
181.8993008886029
 30
0.0
 10
160.2014974850909
 20
181.6072660031537
 30
0.0
 10
159.6895465146321
 20
181.0771610665583
 30
0.0
 10
158.9685464030776
 20
180.9495539736361
 30
0.0
 10
158.6447453409192
 20
180.8922456525206
 30
0.0
 11
160.4835313335962
 21
181.8993008886029
 31
0.0
 11
159.5739852590765
 21
181.1453506939417
 31
0.0
 11
158.6447453409192
 21
180.8922456525206
 31
0.0
  0
SPLINE
  5
2BE
330
1F
100
AcDbEntity
  8
0
  6
Continuous
 62
     7
100
AcDbSpline
210
0.0
220
0.0
230
1.0
 70
     8
 71
     3
 72
    27
 73
    23
 74
    21
 42
0.000000001
 43
0.0000000001
 44
0.00000001
 40
0.0
 40
0.0
 40
0.0
 40
0.0
 40
0.0385982766492309
 40
0.0732755113910068
 40
0.1119014813218958
 40
0.1471961502264262
 40
0.2025256243576928
 40
0.2555690718791058
 40
0.3116278665812549
 40
0.3742366461564758
 40
0.4267929321523151
 40
0.4889860299706198
 40
0.5409917630124347
 40
0.6027971774519308
 40
0.7451909987706997
 40
0.8955580323109303
 40
1.036033428719979
 40
1.182831594763944
 40
1.454416719231262
 40
1.738449886168536
 40
1.987024476640536
 40
2.263818737260844
 40
2.263818737260844
 40
2.263818737260844
 40
2.263818737260844
 10
142.8559593482417
 20
181.8993008886025
 30
0.0
 10
142.8643511378104
 20
181.8895399412356
 30
0.0
 10
142.8802822235846
 20
181.8710096168915
 30
0.0
 10
142.901865115477
 20
181.840525660002
 30
0.0
 10
142.9201562756877
 20
181.8092083355816
 30
0.0
 10
142.9375424396656
 20
181.7696993281508
 30
0.0
 10
142.9495118069193
 20
181.7228959024552
 30
0.0
 10
142.9502856810572
 20
181.6675724472519
 30
0.0
 10
142.9373206804291
 20
181.6112917296879
 30
0.0
 10
142.9124819434291
 20
181.5594635540913
 30
0.0
 10
142.8788324659765
 20
181.5106954147275
 30
0.0
 10
142.8420020121027
 20
181.4689003511549
 30
0.0
 10
142.7995322669715
 20
181.4283668968677
 30
0.0
 10
142.7338152987452
 20
181.3737275838883
 30
0.0
 10
142.6360274159126
 20
181.3068994232104
 30
0.0
 10
142.510186614745
 20
181.235834527046
 30
0.0
 10
142.3789132900209
 20
181.1720390811138
 30
0.0
 10
142.2074493581964
 20
181.0990817018655
 30
0.0
 10
141.9863946184287
 20
181.0209966937395
 30
0.0
 10
141.7270263960395
 20
180.9525848807505
 30
0.0
 10
141.4610773554589
 20
180.9034483177392
 30
0.0
 10
141.2858923739073
 20
180.8961112406311
 30
0.0
 10
141.1935949386167
 20
180.8922456525206
 30
0.0
 11
142.8559593482417
 21
181.8993008886025
 31
0.0
 11
142.8806357874577
 21
181.8696209120257
 31
0.0
 11
142.9007025218046
 21
181.8413395248392
 31
0.0
 11
142.9200328639167
 21
181.8078984804522
 31
0.0
 11
142.9341436187636
 21
181.7755472786857
 31
0.0
 11
142.9474817616655
 21
181.7218495631877
 31
0.0
 11
142.9482029461607
 21
181.668811018606
 31
0.0
 11
142.9359730952324
 21
181.6141025256385
 31
0.0
 11
142.9095035683916
 21
181.5573643249206
 31
0.0
 11
142.8799112500097
 21
181.5139309519893
 31
0.0
 11
142.8390598542345
 21
181.4670359109889
 31
0.0
 11
142.8015356592824
 21
181.4310285359645
 31
0.0
 11
142.7541254073657
 21
181.3913778454409
 31
0.0
 11
142.6372102930918
 21
181.3100952743158
 31
0.0
 11
142.5065756547307
 21
181.2356316187067
 31
0.0
 11
142.3803390273074
 21
181.1740065355439
 31
0.0
 11
142.2453286876388
 21
181.1163705249007
 31
0.0
 11
141.9892747962447
 21
181.0258449234753
 31
0.0
 11
141.7146731600086
 21
180.9532585521767
 31
0.0
 11
141.4697760627797
 21
180.9106588019689
 31
0.0
 11
141.1935949386167
 21
180.8922456525206
 31
0.0
  0
SPLINE
  5
2BF
330
1F
100
AcDbEntity
  8
0
  6
Continuous
 62
     7
100
AcDbSpline
210
0.0
220
0.0
230
1.0
 70
     8
 71
     3
 72
     9
 73
     5
 74
     3
 42
0.000000001
 43
0.0000000001
 44
0.00000001
 40
0.0
 40
0.0
 40
0.0
 40
0.0
 40
0.9630934447999456
 40
2.144497250747416
 40
2.144497250747416
 40
2.144497250747416
 40
2.144497250747416
 10
144.6947453409196
 20
180.8922456525206
 30
0.0
 10
144.3709442787611
 20
180.9495539736362
 30
0.0
 10
143.6499441672064
 20
181.0771610665582
 30
0.0
 10
143.1379931967472
 20
181.6072660031536
 30
0.0
 10
142.8559593482417
 20
181.8993008886025
 30
0.0
 11
144.6947453409196
 21
180.8922456525206
 31
0.0
 11
143.7655054227619
 21
181.1453506939417
 31
0.0
 11
142.8559593482417
 21
181.8993008886025
 31
0.0
  0
SPLINE
  5
2C0
330
1F
100
AcDbEntity
  8
0
  6
Continuous
 62
     2
100
AcDbSpline
210
0.0
220
0.0
230
1.0
 70
     8
 71
     3
 72
    13
 73
     9
 74
     7
 42
0.000000001
 43
0.0000000001
 44
0.00000001
 40
0.0
 40
0.0
 40
0.0
 40
0.0
 40
0.2254667574204853
 40
0.5788634415603777
 40
1.082009899228352
 40
1.715464126776001
 40
2.443153209660005
 40
3.22006077460441
 40
3.22006077460441
 40
3.22006077460441
 40
3.22006077460441
 10
137.4197453409196
 20
203.8922456525206
 30
0.0
 10
137.4479450480414
 20
203.9642633965538
 30
0.0
 10
137.5203449900675
 20
204.1491617772168
 30
0.0
 10
137.8728202823804
 20
204.3088337539848
 30
0.0
 10
138.3339955502561
 20
204.4647311374219
 30
0.0
 10
138.9508790589565
 20
204.5776500729619
 30
0.0
 10
139.658697380689
 20
204.654460260889
 30
0.0
 10
140.1605900370695
 20
204.6638528588371
 30
0.0
 10
140.4197453409196
 20
204.6687027878281
 30
0.0
 11
137.4197453409196
 21
203.8922456525206
 31
0.0
 11
137.521968634616
 21
204.0932074932662
 31
0.0
 11
137.8216691295655
 21
204.2804742201743
 31
0.0
 11
138.2984255629161
 21
204.4412836118205
 31
0.0
 11
138.9197453409196
 21
204.5646772566466
 31
0.0
 11
139.6432884126196
 21
204.6422454525662
 31
0.0
 11
140.4197453409196
 21
204.6687027878281
 31
0.0
  0
SPLINE
  5
2C1
330
1F
100
AcDbEntity
  8
0
  6
Continuous
 62
     2
100
AcDbSpline
210
0.0
220
0.0
230
1.0
 70
     8
 71
     3
 72
    13
 73
     9
 74
     7
 42
0.000000001
 43
0.0000000001
 44
0.00000001
 40
0.0
 40
0.0
 40
0.0
 40
0.0
 40
0.779467577418152
 40
1.503218404691465
 40
2.125191552782935
 40
2.606481797079677
 40
2.920093642794093
 40
3.067397694894914
 40
3.067397694894914
 40
3.067397694894914
 40
3.067397694894914
 10
162.9197453409193
 20
181.8993008886025
 30
0.0
 10
163.1784540747546
 20
181.9258307979554
 30
0.0
 10
163.6773789060239
 20
181.9769942558188
 30
0.0
 10
164.3844779209889
 20
181.9907181381096
 30
0.0
 10
164.9989557819951
 20
181.9729487841257
 30
0.0
 10
165.4544559571277
 20
181.8985655858365
 30
0.0
 10
165.7879455393066
 20
181.8520465705478
 30
0.0
 10
165.8878249034532
 20
181.73094763993
 30
0.0
 10
165.9197453409193
 20
181.6922456525205
 30
0.0
 11
162.9197453409193
 21
181.8993008886025
 31
0.0
 11
163.6962021811926
 21
181.9677440717165
 31
0.0
 11
164.4197454518158
 21
181.9850760033239
 31
0.0
 11
165.0410656056225
 21
181.956582788175
 31
0.0
 11
165.5178216018337
 21
181.8906736158012
 31
0.0
 11
165.8175228270662
 21
181.7983071539464
 31
0.0
 11
165.9197453409193
 21
181.6922456525205
 31
0.0
  0
SPLINE
  5
2C2
330
1F
100
AcDbEntity
  8
0
  6
Continuous
 62
     2
100
AcDbSpline
210
0.0
220
0.0
230
1.0
 70
    24
 71
     3
 72
    15
 73
    11
 74
     9
 42
0.000000001
 43
0.0000000001
 44
0.00000001
 40
0.0
 40
0.0
 40
0.0
 40
0.0
 40
0.0412509227358555
 40
0.0825018454716258
 40
0.1815917284274917
 40
0.3129909185549309
 40
0.4698343919771162
 40
0.6439276448949727
 40
0.826175222678529
 40
1.007055236081925
 40
1.007055236081925
 40
1.007055236081925
 40
1.007055236081925
 10
162.9197453409193
 20
180.8922456525206
 30
0.0
 10
162.9197453409193
 20
180.9059959600992
 30
0.0
 10
162.9197453409192
 20
180.9334965752564
 30
0.0
 10
162.9197453409191
 20
180.9940271513989
 30
0.0
 10
162.919745340919
 20
181.0846071500052
 30
0.0
 10
162.919745340919
 20
181.2137179988404
 30
0.0
 10
162.9197453409191
 20
181.3678299709963
 30
0.0
 10
162.9197453409191
 20
181.5388914057041
 30
0.0
 10
162.9197453409193
 20
181.7179650204058
 30
0.0
 10
162.9197453409193
 20
181.8390075508014
 30
0.0
 10
162.9197453409193
 20
181.8993008886025
 30
0.0
 11
162.9197453409193
 21
180.8922456525206
 31
0.0
 11
162.9197453409193
 21
180.9334965752564
 31
0.0
 11
162.9197453409193
 21
180.9747474979922
 31
0.0
 11
162.9197453409192
 21
181.073837380948
 31
0.0
 11
162.9197453409193
 21
181.2052365710754
 31
0.0
 11
162.9197453409193
 21
181.3620800444976
 31
0.0
 11
162.9197453409193
 21
181.5361732974154
 31
0.0
 11
162.9197453409193
 21
181.718420875199
 31
0.0
 11
162.9197453409193
 21
181.8993008886025
 31
0.0
  0
SPLINE
  5
2C3
330
1F
100
AcDbEntity
  8
0
  6
Continuous
 62
     2
100
AcDbSpline
210
0.0
220
0.0
230
1.0
 70
     8
 71
     3
 72
    13
 73
     9
 74
     7
 42
0.000000001
 43
0.0000000001
 44
0.00000001
 40
0.0
 40
0.0
 40
0.0
 40
0.0
 40
0.2254667574207172
 40
0.5788634415610193
 40
1.0820098992285
 40
1.71546412677558
 40
2.443153209659922
 40
3.220060774604075
 40
3.220060774604075
 40
3.220060774604075
 40
3.220060774604075
 10
165.9197453409193
 20
203.8922456525206
 30
0.0
 10
165.8915456337973
 20
203.9642633965538
 30
0.0
 10
165.8191456917706
 20
204.1491617772168
 30
0.0
 10
165.4666703994577
 20
204.3088337539845
 30
0.0
 10
165.0054951315823
 20
204.4647311374221
 30
0.0
 10
164.3886116228822
 20
204.577650072962
 30
0.0
 10
163.6807933011498
 20
204.6544602608889
 30
0.0
 10
163.1789006447694
 20
204.6638528588371
 30
0.0
 10
162.9197453409193
 20
204.6687027878281
 30
0.0
 11
165.9197453409193
 21
203.8922456525206
 31
0.0
 11
165.8175220472224
 21
204.0932074932662
 31
0.0
 11
165.5178215522724
 21
204.2804742201743
 31
0.0
 11
165.0410651189223
 21
204.4412836118205
 31
0.0
 11
164.4197453409193
 21
204.5646772566465
 31
0.0
 11
163.6962022692191
 21
204.6422454525662
 31
0.0
 11
162.9197453409193
 21
204.6687027878281
 31
0.0
  0
SPLINE
  5
2C4
330
1F
100
AcDbEntity
  8
0
  6
Continuous
 62
     2
100
AcDbSpline
210
0.0
220
0.0
230
1.0
 70
    24
 71
     3
 72
    15
 73
    11
 74
     9
 42
0.000000001
 43
0.0000000001
 44
0.00000001
 40
0.0
 40
0.0
 40
0.0
 40
0.0
 40
0.180880013403538
 40
0.3631275911870944
 40
0.5372208441046098
 40
0.6940643175268519
 40
0.8254635076542627
 40
0.9245533906099581
 40
0.9658043133458989
 40
1.007055236081925
 40
1.007055236081925
 40
1.007055236081925
 40
1.007055236081925
 10
140.4197453409196
 20
181.8993008886025
 30
0.0
 10
140.4197453409196
 20
181.8390075508013
 30
0.0
 10
140.4197453409196
 20
181.7179650204056
 30
0.0
 10
140.4197453409195
 20
181.5388914057041
 30
0.0
 10
140.4197453409193
 20
181.3678299709964
 30
0.0
 10
140.4197453409193
 20
181.2137179988406
 30
0.0
 10
140.4197453409194
 20
181.0846071500055
 30
0.0
 10
140.4197453409195
 20
180.9940271513992
 30
0.0
 10
140.4197453409195
 20
180.9334965752566
 30
0.0
 10
140.4197453409196
 20
180.9059959600993
 30
0.0
 10
140.4197453409196
 20
180.8922456525206
 30
0.0
 11
140.4197453409196
 21
181.8993008886025
 31
0.0
 11
140.4197453409196
 21
181.7184208751989
 31
0.0
 11
140.4197453409196
 21
181.5361732974153
 31
0.0
 11
140.4197453409196
 21
181.3620800444977
 31
0.0
 11
140.4197453409196
 21
181.2052365710754
 31
0.0
 11
140.4197453409196
 21
181.073837380948
 31
0.0
 11
140.4197453409196
 21
180.9747474979924
 31
0.0
 11
140.4197453409196
 21
180.9334965752565
 31
0.0
 11
140.4197453409196
 21
180.8922456525206
 31
0.0
  0
SPLINE
  5
2C5
330
1F
100
AcDbEntity
  8
0
  6
Continuous
 62
     2
100
AcDbSpline
210
0.0
220
0.0
230
1.0
 70
     8
 71
     3
 72
    13
 73
     9
 74
     7
 42
0.000000001
 43
0.0000000001
 44
0.00000001
 40
0.0
 40
0.0
 40
0.0
 40
0.0
 40
0.1473040521005501
 40
0.4609158978144589
 40
0.9422061421113833
 40
1.564179290203185
 40
2.287930117475654
 40
3.067397694894672
 40
3.067397694894672
 40
3.067397694894672
 40
3.067397694894672
 10
137.4197453409196
 20
181.6922456525205
 30
0.0
 10
137.4516657783858
 20
181.7309476399297
 30
0.0
 10
137.5515451425328
 20
181.8520465705469
 30
0.0
 10
137.8850347247106
 20
181.8985655858374
 30
0.0
 10
138.3405348998437
 20
181.9729487841254
 30
0.0
 10
138.9550127608496
 20
181.9907181381091
 30
0.0
 10
139.6621117758148
 20
181.9769942558197
 30
0.0
 10
140.161036607084
 20
181.9258307979557
 30
0.0
 10
140.4197453409196
 20
181.8993008886025
 30
0.0
 11
137.4197453409196
 21
181.6922456525205
 31
0.0
 11
137.5219678547729
 21
181.7983071539458
 31
0.0
 11
137.8216690800046
 21
181.8906736158014
 31
0.0
 11
138.298425076216
 21
181.9565827881748
 31
0.0
 11
138.9197452300231
 21
181.9850760033236
 31
0.0
 11
139.6432885006455
 21
181.967744071717
 31
0.0
 11
140.4197453409196
 21
181.8993008886025
 31
0.0
  0
SPLINE
  5
2C6
330
1F
100
AcDbEntity
  8
0
  6
Continuous
 62
     7
100
AcDbSpline
210
0.0
220
0.0
230
1.0
 70
     8
 71
     3
 72
    15
 73
    11
 74
     9
 42
0.000000001
 43
0.0000000001
 44
0.00000001
 40
0.0
 40
0.0
 40
0.0
 40
0.0
 40
0.5261685671525075
 40
1.053925226851406
 40
3.23352964192019
 40
5.418608348401015
 40
7.603687054880443
 40
9.783291469940044
 40
10.30869214209975
 40
10.83251773737408
 40
10.83251773737408
 40
10.83251773737408
 40
10.83251773737408
 10
156.8956856661212
 20
206.8884649153926
 30
0.0
 10
156.7384963267288
 20
206.9663527724489
 30
0.0
 10
156.4236432096405
 20
207.1223635562661
 30
0.0
 10
155.4312468620151
 20
207.5438413856275
 30
0.0
 10
153.8561646686022
 20
208.0069253834018
 30
0.0
 10
151.6697449099652
 20
208.2136448049796
 30
0.0
 10
149.4833277348482
 20
208.0069240426474
 30
0.0
 10
147.9089982560124
 20
207.5440680436495
 30
0.0
 10
146.9180090487052
 20
207.1232964635651
 30
0.0
 10
146.6045050362811
 20
206.9680930186537
 30
0.0
 10
146.4479883460886
 20
206.8906077838205
 30
0.0
 11
156.8956856661212
 21
206.8884649153926
 31
0.0
 11
156.4219728634374
 21
207.1174835654028
 31
0.0
 11
155.9366656117898
 21
207.3248575365983
 31
0.0
 11
153.845002328225
 21
207.9377360923995
 31
0.0
 11
151.6697453409188
 21
208.1446805254386
 31
0.0
 11
149.4944883536131
 21
207.9377360923995
 31
0.0
 11
147.4028250700488
 21
207.3248575365983
 31
0.0
 11
146.9196628697815
 21
207.1184594864337
 31
0.0
 11
146.4479883460886
 21
206.8906077838205
 31
0.0
  0
SPLINE
  5
2C7
330
1F
100
AcDbEntity
  8
0
  6
Continuous
 62
     7
100
AcDbSpline
210
0.0
220
0.0
230
1.0
 70
     8
 71
     3
 72
    11
 73
     7
 74
     5
 42
0.000000001
 43
0.0000000001
 44
0.00000001
 40
0.0
 40
0.0
 40
0.0
 40
0.0
 40
2.18507870808654
 40
4.364683123443749
 40
4.890083795310005
 40
5.413909389945701
 40
5.413909389945701
 40
5.413909389945701
 40
5.413909389945701
 10
151.6697453409194
 20
208.1446805254386
 30
0.0
 10
150.9403302954277
 20
208.1051198102187
 30
0.0
 10
149.4833276154114
 20
208.0260974746786
 30
0.0
 10
147.9089982618754
 20
207.5430055706535
 30
0.0
 10
146.9180090475052
 20
207.1234109358916
 30
0.0
 10
146.604505035852
 20
206.9681311378704
 30
0.0
 10
146.4479883460886
 20
206.8906077838205
 30
0.0
 11
151.6697453409194
 21
208.1446805254386
 31
0.0
 11
149.4944883536132
 21
207.9377360923995
 31
0.0
 11
147.4028250700488
 21
207.3248575365983
 31
0.0
 11
146.9196628697815
 21
207.1184594864337
 31
0.0
 11
146.4479883460886
 21
206.8906077838205
 31
0.0
  0
DIMENSION
  5
2D3
330
1F
100
AcDbEntity
  8
1
100
AcDbDimension
  2
*D3
 10
45.76974534091923
 20
133.225233133655
 30
0.0
 11
69.76974534091923
 21
136.725233133655
 31
0.0
 70
    32
  1
<>
 71
     5
 42
-1.0
 53
0.00013888888889
  3
ME10_DIM_10
100
AcDbAlignedDimension
 13
93.76974534091923
 23
152.8922456525206
 33
0.0
 14
45.76974534091923
 24
152.8922456525206
 34
0.0
100
AcDbRotatedDimension
  0
DIMENSION
  5
2DE
330
1F
100
AcDbEntity
  8
1
100
AcDbDimension
  2
*D4
 10
137.4197453409195
 20
133.075233133655
 30
0.0
 11
151.6697453409194
 21
136.725233133655
 31
0.0
 70
    32
  1
<>
 71
     5
 42
-1.0
 53
0.00013888888889
  3
ME10_DIM_11
100
AcDbAlignedDimension
 13
165.9197453409193
 23
152.8922456525206
 33
0.0
 14
137.4197453409196
 24
152.8922456525206
 34
0.0
100
AcDbRotatedDimension
  0
DIMENSION
  5
2E9
330
1F
100
AcDbEntity
  8
1
100
AcDbDimension
  2
*D5
 10
134.2697453409194
 20
117.844206333514
 30
0.0
 11
151.6697453409194
 21
121.494206333514
 31
0.0
 70
    32
  1
<>
 71
     5
 42
-1.0
 53
0.00013888888889
  3
ME10_DIM_12
100
AcDbAlignedDimension
 13
169.0697453409194
 23
161.3922456525206
 33
0.0
 14
134.2697453409195
 24
161.3922456525206
 34
0.0
100
AcDbRotatedDimension
  0
DIMENSION
  5
2F4
330
1F
100
AcDbEntity
  8
1
100
AcDbDimension
  2
*D6
 10
186.0356671743033
 20
152.8922456525206
 30
0.0
 11
182.5356671743033
 21
179.8922456525206
 31
0.0
 70
    32
  1
<>
 71
     5
 42
-1.0
 53
90.0
  3
ME10_DIM_13
100
AcDbAlignedDimension
 13
162.9197453409193
 23
206.8922456525206
 33
0.0
 14
158.5197453409192
 24
152.8922456525206
 34
0.0
 50
90.0
100
AcDbRotatedDimension
  0
DIMENSION
  5
2FF
330
1F
100
AcDbEntity
  8
1
100
AcDbDimension
  2
*D7
 10
107.9116153298569
 20
211.10715357055
 30
0.0
 11
114.6128546965922
 21
201.3594158355821
 31
0.0
 70
    32
  1
Pg 16
 71
     5
 42
-1.0
 53
-74.99999999999781
  3
ME10_DIM_14
100
AcDbAlignedDimension
 13
102.6271801152364
 23
186.6045345991924
 33
0.0
 14
96.85551540944934
 24
208.1446805254386
 34
0.0
 50
-74.99999999999781
100
AcDbRotatedDimension
  0
DIMENSION
  5
30A
330
1F
100
AcDbEntity
  8
1
100
AcDbDimension
  2
*D8
 10
93.76974534091923
 20
133.075233133655
 30
0.0
 11
98.07552368165418
 21
136.725233133655
 31
0.0
 70
    32
  1
8,6
 71
     5
 42
-1.0
 53
0.00013888888889
  3
ME10_DIM_15
100
AcDbAlignedDimension
 13
102.381302022389
 23
187.522164134167
 33
0.0
 14
93.76974534091923
 24
152.8922456525206
 34
0.0
100
AcDbRotatedDimension
  0
DIMENSION
  5
317
330
1F
100
AcDbEntity
  8
1
100
AcDbDimension
  2
*D9
 10
186.0356671743033
 20
206.8922456525206
 30
0.0
 11
182.3856671743033
 21
218.243862117362
 31
0.0
 70
    32
  1
1,3
 71
     5
 42
-1.0
 53
90.0
  3
ME10_DIM_16
100
AcDbAlignedDimension
 13
151.6697453409194
 23
208.1446805254386
 33
0.0
 14
162.9197453409193
 24
206.8922456525206
 34
0.0
 50
90.0
100
AcDbRotatedDimension
  0
ENDSEC
  0
SECTION
  2
OBJECTS
  0
DICTIONARY
  5
C
330
0
100
AcDbDictionary
281
     1
  3
ACAD_GROUP
350
D
  3
ACAD_LAYOUT
350
1A
  3
ACAD_MATERIAL
350
3B
  3
ACAD_MLEADERSTYLE
350
31A
  3
ACAD_MLINESTYLE
350
17
  3
ACAD_PLOTSETTINGS
350
19
  3
ACAD_PLOTSTYLENAME
350
E
  3
ACAD_VISUALSTYLE
350
2A
  3
AcDbVariableDictionary
350
318
  0
DICTIONARY
  5
D
102
{ACAD_REACTORS
330
C
102
}
330
C
100
AcDbDictionary
281
     1
  0
DICTIONARY
  5
1A
102
{ACAD_REACTORS
330
C
102
}
330
C
100
AcDbDictionary
281
     1
  3
Layout1
350
1E
  3
Layout2
350
26
  3
Model
350
22
  0
DICTIONARY
  5
3B
102
{ACAD_REACTORS
330
C
102
}
330
C
100
AcDbDictionary
281
     1
  3
ByBlock
350
3D
  3
ByLayer
350
3C
  3
Global
350
3E
  0
DICTIONARY
  5
31A
102
{ACAD_REACTORS
330
C
102
}
330
C
100
AcDbDictionary
281
     1
  0
DICTIONARY
  5
17
102
{ACAD_REACTORS
330
C
102
}
330
C
100
AcDbDictionary
281
     1
  3
Standard
350
18
  0
DICTIONARY
  5
19
102
{ACAD_REACTORS
330
C
102
}
330
C
100
AcDbDictionary
281
     1
  0
ACDBDICTIONARYWDFLT
  5
E
102
{ACAD_REACTORS
330
C
102
}
330
C
100
AcDbDictionary
281
     1
  3
Normal
350
F
100
AcDbDictionaryWithDefault
340
F
  0
DICTIONARY
  5
2A
102
{ACAD_REACTORS
330
C
102
}
330
C
100
AcDbDictionary
281
     1
  3
2dWireframe
350
2F
  3
3D Hidden
350
31
  3
3dWireframe
350
30
  3
Basic
350
32
  3
Brighten
350
36
  3
ColorChange
350
3A
  3
Conceptual
350
34
  3
Dim
350
35
  3
Facepattern
350
39
  3
Flat
350
2B
  3
FlatWithEdges
350
2C
  3
Gouraud
350
2D
  3
GouraudWithEdges
350
2E
  3
Linepattern
350
38
  3
Realistic
350
33
  3
Thicken
350
37
  0
DICTIONARY
  5
318
102
{ACAD_REACTORS
330
C
102
}
330
C
100
AcDbDictionary
281
     1
  3
DIMASSOC
350
31B
  3
HIDETEXT
350
31C
  0
LAYOUT
  5
1E
102
{ACAD_REACTORS
330
1A
102
}
330
1A
100
AcDbPlotSettings
  1

  2
none_device
  4

  6

 40
0.0
 41
0.0
 42
0.0
 43
0.0
 44
0.0
 45
0.0
 46
0.0
 47
0.0
 48
0.0
 49
0.0
140
0.0
141
0.0
142
1.0
143
1.0
 70
   688
 72
     0
 73
     0
 74
     5
  7

 75
    16
147
1.0
148
0.0
149
0.0
100
AcDbLayout
  1
Layout1
 70
     1
 71
     1
 10
0.0
 20
0.0
 11
12.0
 21
9.0
 12
0.0
 22
0.0
 32
0.0
 14
1.00000000000000E+20
 24
1.00000000000000E+20
 34
1.00000000000000E+20
 15
-1.00000000000000E+20
 25
-1.00000000000000E+20
 35
-1.00000000000000E+20
146
0.0
 13
0.0
 23
0.0
 33
0.0
 16
1.0
 26
0.0
 36
0.0
 17
0.0
 27
1.0
 37
0.0
 76
     0
330
1B
  0
LAYOUT
  5
26
102
{ACAD_REACTORS
330
1A
102
}
330
1A
100
AcDbPlotSettings
  1

  2
none_device
  4

  6

 40
0.0
 41
0.0
 42
0.0
 43
0.0
 44
0.0
 45
0.0
 46
0.0
 47
0.0
 48
0.0
 49
0.0
140
0.0
141
0.0
142
1.0
143
1.0
 70
   688
 72
     0
 73
     0
 74
     5
  7

 75
    16
147
1.0
148
0.0
149
0.0
100
AcDbLayout
  1
Layout2
 70
     1
 71
     2
 10
0.0
 20
0.0
 11
0.0
 21
0.0
 12
0.0
 22
0.0
 32
0.0
 14
0.0
 24
0.0
 34
0.0
 15
0.0
 25
0.0
 35
0.0
146
0.0
 13
0.0
 23
0.0
 33
0.0
 16
1.0
 26
0.0
 36
0.0
 17
0.0
 27
1.0
 37
0.0
 76
     0
330
23
  0
LAYOUT
  5
22
102
{ACAD_REACTORS
330
1A
102
}
330
1A
100
AcDbPlotSettings
  1

  2
none_device
  4

  6

 40
0.0
 41
0.0
 42
0.0
 43
0.0
 44
0.0
 45
0.0
 46
0.0
 47
0.0
 48
0.0
 49
0.0
140
0.0
141
0.0
142
1.0
143
1.0
 70
  1712
 72
     0
 73
     0
 74
     0
  7

 75
     0
147
1.0
148
0.0
149
0.0
100
AcDbLayout
  1
Model
 70
     1
 71
     0
 10
0.0
 20
0.0
 11
12.0
 21
9.0
 12
0.0
 22
0.0
 32
0.0
 14
0.0
 24
0.0
 34
0.0
 15
210.0000000000002
 25
297.0000000000001
 35
0.0
146
0.0
 13
0.0
 23
0.0
 33
0.0
 16
1.0
 26
0.0
 36
0.0
 17
0.0
 27
1.0
 37
0.0
 76
     0
330
1F
331
29
  0
MATERIAL
  5
3D
102
{ACAD_REACTORS
330
3B
102
}
102
{ACAD_XDICTIONARY
360
33F
102
}
330
3B
100
AcDbMaterial
  1
ByBlock
  0
MATERIAL
  5
3C
102
{ACAD_REACTORS
330
3B
102
}
102
{ACAD_XDICTIONARY
360
33D
102
}
330
3B
100
AcDbMaterial
  1
ByLayer
  0
MATERIAL
  5
3E
102
{ACAD_REACTORS
330
3B
102
}
102
{ACAD_XDICTIONARY
360
341
102
}
330
3B
100
AcDbMaterial
  1
Global
  0
MLINESTYLE
  5
18
102
{ACAD_REACTORS
330
17
102
}
330
17
100
AcDbMlineStyle
  2
Standard
 70
     0
  3

 62
   256
 51
90.0
 52
90.0
 71
     2
 49
0.5
 62
   256
  6
BYLAYER
 49
-0.5
 62
   256
  6
BYLAYER
  0
ACDBPLACEHOLDER
  5
F
102
{ACAD_REACTORS
330
E
102
}
330
E
  0
VISUALSTYLE
  5
2F
102
{ACAD_REACTORS
330
2A
102
}
102
{ACAD_XDICTIONARY
360
325
102
}
330
2A
100
AcDbVisualStyle
  2
2dWireframe
 70
     4
 71
     0
 72
     2
 73
     0
 90
        0
 40
-0.6
 41
-30.0
 62
     5
 63
     7
 74
     1
 91
        4
 64
     7
 65
   257
 75
     1
175
     1
 42
1.0
 92
        0
 66
   257
 43
1.0
 76
     1
 77
     6
 78
     2
 67
     7
 79
     5
170
     0
171
     0
290
     0
174
     0
 93
        1
 44
0.0
173
     0
291
     0
 45
0.0
1001
ACAD
1000
AcDbSavedByObjectVersion
1070
     0
  0
VISUALSTYLE
  5
31
102
{ACAD_REACTORS
330
2A
102
}
102
{ACAD_XDICTIONARY
360
329
102
}
330
2A
100
AcDbVisualStyle
  2
3D Hidden
 70
     6
 71
     1
 72
     2
 73
     2
 90
        0
 40
-0.6
 41
-30.0
 62
     5
 63
     7
 74
     2
 91
        2
 64
     7
 65
   257
 75
     2
175
     1
 42
40.0
 92
        0
 66
   257
 43
1.0
 76
     1
 77
     6
 78
     2
 67
     7
 79
     3
170
     0
171
     0
290
     0
174
     0
 93
        1
 44
0.0
173
     0
291
     0
 45
0.0
1001
ACAD
1000
AcDbSavedByObjectVersion
1070
     0
  0
VISUALSTYLE
  5
30
102
{ACAD_REACTORS
330
2A
102
}
102
{ACAD_XDICTIONARY
360
327
102
}
330
2A
100
AcDbVisualStyle
  2
3dWireframe
 70
     5
 71
     0
 72
     2
 73
     0
 90
        0
 40
-0.6
 41
-30.0
 62
     5
 63
     7
 74
     1
 91
        4
 64
     7
 65
   257
 75
     1
175
     1
 42
1.0
 92
        0
 66
   257
 43
1.0
 76
     1
 77
     6
 78
     2
 67
     7
 79
     5
170
     0
171
     0
290
     0
174
     0
 93
        1
 44
0.0
173
     0
291
     0
 45
0.0
1001
ACAD
1000
AcDbSavedByObjectVersion
1070
     0
  0
VISUALSTYLE
  5
32
102
{ACAD_REACTORS
330
2A
102
}
102
{ACAD_XDICTIONARY
360
32B
102
}
330
2A
100
AcDbVisualStyle
  2
Basic
 70
     7
 71
     1
 72
     0
 73
     1
 90
        0
 40
-0.6
 41
-30.0
 62
     5
 63
     7
 74
     0
 91
        4
 64
     7
 65
   257
 75
     1
175
     1
 42
1.0
 92
        8
 66
     7
 43
1.0
 76
     1
 77
     6
 78
     2
 67
     7
 79
     5
170
     0
171
     0
290
     0
174
     0
 93
        1
 44
0.0
173
     0
291
     1
 45
0.0
1001
ACAD
1000
AcDbSavedByObjectVersion
1070
     0
  0
VISUALSTYLE
  5
36
102
{ACAD_REACTORS
330
2A
102
}
102
{ACAD_XDICTIONARY
360
333
102
}
330
2A
100
AcDbVisualStyle
  2
Brighten
 70
    12
 71
     2
 72
     2
 73
     0
 90
        0
 40
-0.6
 41
-30.0
 62
     5
 63
     7
 74
     1
 91
        4
 64
     7
 65
   257
 75
     1
175
     1
 42
1.0
 92
        8
 66
     7
 43
1.0
 76
     1
 77
     6
 78
     2
 67
     7
 79
     5
170
     0
171
     0
290
     0
174
     0
 93
        1
 44
50.0
173
     0
291
     1
 45
0.0
1001
ACAD
1000
AcDbSavedByObjectVersion
1070
     0
  0
VISUALSTYLE
  5
3A
102
{ACAD_REACTORS
330
2A
102
}
102
{ACAD_XDICTIONARY
360
33B
102
}
330
2A
100
AcDbVisualStyle
  2
ColorChange
 70
    16
 71
     2
 72
     2
 73
     3
 90
        0
 40
-0.6
 41
-30.0
 62
     5
 63
     8
 74
     1
 91
        4
 64
     7
 65
   257
 75
     1
175
     1
 42
1.0
 92
        8
 66
     8
 43
1.0
 76
     1
 77
     6
 78
     2
 67
     7
 79
     5
170
     0
171
     0
290
     0
174
     0
 93
        1
 44
0.0
173
     0
291
     1
 45
0.0
1001
ACAD
1000
AcDbSavedByObjectVersion
1070
     0
  0
VISUALSTYLE
  5
34
102
{ACAD_REACTORS
330
2A
102
}
102
{ACAD_XDICTIONARY
360
32F
102
}
330
2A
100
AcDbVisualStyle
  2
Conceptual
 70
     9
 71
     3
 72
     2
 73
     0
 90
        0
 40
-0.6
 41
-30.0
 62
     5
 63
     7
 74
     2
 91
        2
 64
     7
 65
   257
 75
     1
175
     1
 42
40.0
 92
        8
 66
     7
 43
1.0
 76
     1
 77
     6
 78
     2
 67
     7
 79
     3
170
     0
171
     0
290
     0
174
     0
 93
        1
 44
0.0
173
     0
291
     0
 45
0.0
1001
ACAD
1000
AcDbSavedByObjectVersion
1070
     0
  0
VISUALSTYLE
  5
35
102
{ACAD_REACTORS
330
2A
102
}
102
{ACAD_XDICTIONARY
360
331
102
}
330
2A
100
AcDbVisualStyle
  2
Dim
 70
    11
 71
     2
 72
     2
 73
     0
 90
        0
 40
-0.6
 41
-30.0
 62
     5
 63
     7
 74
     1
 91
        4
 64
     7
 65
   257
 75
     1
175
     1
 42
1.0
 92
        8
 66
     7
 43
1.0
 76
     1
 77
     6
 78
     2
 67
     7
 79
     5
170
     0
171
     0
290
     0
174
     0
 93
        1
 44
-50.0
173
     0
291
     1
 45
0.0
1001
ACAD
1000
AcDbSavedByObjectVersion
1070
     0
  0
VISUALSTYLE
  5
39
102
{ACAD_REACTORS
330
2A
102
}
102
{ACAD_XDICTIONARY
360
339
102
}
330
2A
100
AcDbVisualStyle
  2
Facepattern
 70
    15
 71
     2
 72
     2
 73
     0
 90
        0
 40
-0.6
 41
-30.0
 62
     5
 63
     7
 74
     1
 91
        4
 64
     7
 65
   257
 75
     1
175
     1
 42
1.0
 92
        8
 66
     7
 43
1.0
 76
     1
 77
     6
 78
     2
 67
     7
 79
     5
170
     0
171
     0
290
     0
174
     0
 93
        1
 44
0.0
173
     0
291
     1
 45
0.0
1001
ACAD
1000
AcDbSavedByObjectVersion
1070
     0
  0
VISUALSTYLE
  5
2B
102
{ACAD_REACTORS
330
2A
102
}
102
{ACAD_XDICTIONARY
360
31D
102
}
330
2A
100
AcDbVisualStyle
  2
Flat
 70
     0
 71
     2
 72
     1
 73
     1
 90
        2
 40
-0.6
 41
30.0
 62
     5
 63
     7
 74
     0
 91
        4
 64
     7
 65
   257
 75
     1
175
     1
 42
1.0
 92
        8
 66
     7
 43
1.0
 76
     1
 77
     6
 78
     2
 67
     7
 79
     5
170
     0
171
     0
290
     0
174
     0
 93
       13
 44
0.0
173
     0
291
     1
 45
0.0
1001
ACAD
1000
AcDbSavedByObjectVersion
1070
     0
  0
VISUALSTYLE
  5
2C
102
{ACAD_REACTORS
330
2A
102
}
102
{ACAD_XDICTIONARY
360
31F
102
}
330
2A
100
AcDbVisualStyle
  2
FlatWithEdges
 70
     1
 71
     2
 72
     1
 73
     1
 90
        2
 40
-0.6
 41
30.0
 62
     5
 63
     7
 74
     1
 91
        4
 64
     7
 65
   257
 75
     1
175
     1
 42
1.0
 92
        0
 66
   257
 43
1.0
 76
     1
 77
     6
 78
     2
 67
     7
 79
     5
170
     0
171
     0
290
     0
174
     0
 93
       13
 44
0.0
173
     0
291
     1
 45
0.0
1001
ACAD
1000
AcDbSavedByObjectVersion
1070
     0
  0
VISUALSTYLE
  5
2D
102
{ACAD_REACTORS
330
2A
102
}
102
{ACAD_XDICTIONARY
360
321
102
}
330
2A
100
AcDbVisualStyle
  2
Gouraud
 70
     2
 71
     2
 72
     2
 73
     1
 90
        2
 40
-0.6
 41
30.0
 62
     5
 63
     7
 74
     0
 91
        4
 64
     7
 65
   257
 75
     1
175
     1
 42
1.0
 92
        0
 66
     7
 43
1.0
 76
     1
 77
     6
 78
     2
 67
     7
 79
     5
170
     0
171
     0
290
     0
174
     0
 93
       13
 44
0.0
173
     0
291
     1
 45
0.0
1001
ACAD
1000
AcDbSavedByObjectVersion
1070
     0
  0
VISUALSTYLE
  5
2E
102
{ACAD_REACTORS
330
2A
102
}
102
{ACAD_XDICTIONARY
360
323
102
}
330
2A
100
AcDbVisualStyle
  2
GouraudWithEdges
 70
     3
 71
     2
 72
     2
 73
     1
 90
        2
 40
-0.6
 41
30.0
 62
     5
 63
     7
 74
     1
 91
        4
 64
     7
 65
   257
 75
     1
175
     1
 42
1.0
 92
        0
 66
   257
 43
1.0
 76
     1
 77
     6
 78
     2
 67
     7
 79
     5
170
     0
171
     0
290
     0
174
     0
 93
       13
 44
0.0
173
     0
291
     1
 45
0.0
1001
ACAD
1000
AcDbSavedByObjectVersion
1070
     0
  0
VISUALSTYLE
  5
38
102
{ACAD_REACTORS
330
2A
102
}
102
{ACAD_XDICTIONARY
360
337
102
}
330
2A
100
AcDbVisualStyle
  2
Linepattern
 70
    14
 71
     2
 72
     2
 73
     0
 90
        0
 40
-0.6
 41
-30.0
 62
     5
 63
     7
 74
     1
 91
        4
 64
     7
 65
   257
 75
     7
175
     7
 42
1.0
 92
        8
 66
     7
 43
1.0
 76
     1
 77
     6
 78
     2
 67
     7
 79
     5
170
     0
171
     0
290
     0
174
     0
 93
        1
 44
0.0
173
     0
291
     1
 45
0.0
1001
ACAD
1000
AcDbSavedByObjectVersion
1070
     0
  0
VISUALSTYLE
  5
33
102
{ACAD_REACTORS
330
2A
102
}
102
{ACAD_XDICTIONARY
360
32D
102
}
330
2A
100
AcDbVisualStyle
  2
Realistic
 70
     8
 71
     2
 72
     2
 73
     0
 90
        0
 40
-0.6
 41
-30.0
 62
     5
 63
     7
 74
     1
 91
        0
 64
     7
 65
   257
 75
     1
175
     1
 42
1.0
 92
        8
 66
     8
 43
1.0
 76
     1
 77
     6
 78
     2
 67
     7
 79
     5
170
     0
171
     0
290
     0
174
     0
 93
       13
 44
0.0
173
     0
291
     0
 45
0.0
1001
ACAD
1000
AcDbSavedByObjectVersion
1070
     0
  0
VISUALSTYLE
  5
37
102
{ACAD_REACTORS
330
2A
102
}
102
{ACAD_XDICTIONARY
360
335
102
}
330
2A
100
AcDbVisualStyle
  2
Thicken
 70
    13
 71
     2
 72
     2
 73
     0
 90
        0
 40
-0.6
 41
-30.0
 62
     5
 63
     7
 74
     1
 91
        4
 64
     7
 65
   257
 75
     1
175
     1
 42
1.0
 92
       12
 66
     7
 43
1.0
 76
     1
 77
     6
 78
     2
 67
     7
 79
     5
170
     0
171
     0
290
     0
174
     0
 93
        1
 44
0.0
173
     0
291
     1
 45
0.0
1001
ACAD
1000
AcDbSavedByObjectVersion
1070
     0
  0
DICTIONARYVAR
  5
31B
102
{ACAD_REACTORS
330
318
102
}
330
318
100
DictionaryVariables
280
     0
  1
2
  0
DICTIONARYVAR
  5
31C
102
{ACAD_REACTORS
330
318
102
}
330
318
100
DictionaryVariables
280
     0
  1
1
  0
DICTIONARY
  5
33F
330
3D
100
AcDbDictionary
280
     1
281
     1
  3
ACAD_XREC_ROUNDTRIP
360
340
  0
DICTIONARY
  5
33D
330
3C
100
AcDbDictionary
280
     1
281
     1
  3
ACAD_XREC_ROUNDTRIP
360
33E
  0
DICTIONARY
  5
341
330
3E
100
AcDbDictionary
280
     1
281
     1
  3
ACAD_XREC_ROUNDTRIP
360
342
  0
DICTIONARY
  5
325
330
2F
100
AcDbDictionary
280
     1
281
     1
  3
ACAD_XREC_ROUNDTRIP
360
326
  0
DICTIONARY
  5
329
330
31
100
AcDbDictionary
280
     1
281
     1
  3
ACAD_XREC_ROUNDTRIP
360
32A
  0
DICTIONARY
  5
327
330
30
100
AcDbDictionary
280
     1
281
     1
  3
ACAD_XREC_ROUNDTRIP
360
328
  0
DICTIONARY
  5
32B
330
32
100
AcDbDictionary
280
     1
281
     1
  3
ACAD_XREC_ROUNDTRIP
360
32C
  0
DICTIONARY
  5
333
330
36
100
AcDbDictionary
280
     1
281
     1
  3
ACAD_XREC_ROUNDTRIP
360
334
  0
DICTIONARY
  5
33B
330
3A
100
AcDbDictionary
280
     1
281
     1
  3
ACAD_XREC_ROUNDTRIP
360
33C
  0
DICTIONARY
  5
32F
330
34
100
AcDbDictionary
280
     1
281
     1
  3
ACAD_XREC_ROUNDTRIP
360
330
  0
DICTIONARY
  5
331
330
35
100
AcDbDictionary
280
     1
281
     1
  3
ACAD_XREC_ROUNDTRIP
360
332
  0
DICTIONARY
  5
339
330
39
100
AcDbDictionary
280
     1
281
     1
  3
ACAD_XREC_ROUNDTRIP
360
33A
  0
DICTIONARY
  5
31D
330
2B
100
AcDbDictionary
280
     1
281
     1
  3
ACAD_XREC_ROUNDTRIP
360
31E
  0
DICTIONARY
  5
31F
330
2C
100
AcDbDictionary
280
     1
281
     1
  3
ACAD_XREC_ROUNDTRIP
360
320
  0
DICTIONARY
  5
321
330
2D
100
AcDbDictionary
280
     1
281
     1
  3
ACAD_XREC_ROUNDTRIP
360
322
  0
DICTIONARY
  5
323
330
2E
100
AcDbDictionary
280
     1
281
     1
  3
ACAD_XREC_ROUNDTRIP
360
324
  0
DICTIONARY
  5
337
330
38
100
AcDbDictionary
280
     1
281
     1
  3
ACAD_XREC_ROUNDTRIP
360
338
  0
DICTIONARY
  5
32D
330
33
100
AcDbDictionary
280
     1
281
     1
  3
ACAD_XREC_ROUNDTRIP
360
32E
  0
DICTIONARY
  5
335
330
37
100
AcDbDictionary
280
     1
281
     1
  3
ACAD_XREC_ROUNDTRIP
360
336
  0
XRECORD
  5
340
102
{ACAD_REACTORS
330
33F
102
}
330
33F
100
AcDbXrecord
280
     1
102
MATERIAL
148
0.0
149
0.0
149
0.0
 93
        0
 94
      127
282
     0
 72
     1
 77
     1
171
     1
175
     1
179
     1
273
     0
  0
XRECORD
  5
33E
102
{ACAD_REACTORS
330
33D
102
}
330
33D
100
AcDbXrecord
280
     1
102
MATERIAL
148
0.0
149
0.0
149
0.0
 93
        0
 94
      127
282
     0
 72
     1
 77
     1
171
     1
175
     1
179
     1
273
     0
  0
XRECORD
  5
342
102
{ACAD_REACTORS
330
341
102
}
330
341
100
AcDbXrecord
280
     1
102
MATERIAL
148
0.0
149
0.0
149
0.0
 93
        0
 94
      127
282
     0
 72
     1
 77
     1
171
     1
175
     1
179
     1
273
     0
  0
XRECORD
  5
326
102
{ACAD_REACTORS
330
325
102
}
330
325
100
AcDbXrecord
280
     1
102
RTVSPropertyOp0
 70
     1
102
RTVSPropertyOp1
 70
     1
102
RTVSPropertyOp2
 70
     1
102
RTVSPropertyOp3
 70
     1
102
RTVSPropertyOp4
 70
     1
102
RTVSPropertyOp5
 70
     1
102
RTVSPropertyOp6
 70
     1
102
RTVSPropertyOp7
 70
     1
102
RTVSPropertyOp8
 70
     1
102
RTVSPropertyOp9
 70
     1
102
RTVSPropertyOp10
 70
     1
102
RTVSPropertyOp11
 70
     1
102
RTVSPropertyOp12
 70
     1
102
RTVSPropertyOp13
 70
     1
102
RTVSPropertyOp14
 70
     1
102
RTVSPropertyOp15
 70
     1
102
RTVSPropertyOp16
 70
     1
102
RTVSPropertyOp17
 70
     1
102
RTVSPropertyOp18
 70
     1
102
RTVSPropertyOp19
 70
     1
102
RTVSPropertyOp20
 70
     1
102
RTVSPropertyOp21
 70
     1
102
RTVSPropertyOp22
 70
     1
102
RTVSPropertyOp23
 70
     1
102
RTVSPropertyOp24
 70
     1
102
RTVSPropertyOp25
 70
     1
102
RTVSPropertyOp26
 70
     1
102
RTVSPropertyOp27
 70
     1
102
RTVSPropertyOp28
 70
     1
102
RTVSPropertyOp29
 70
     1
102
RTVSPropertyOp30
 70
     1
102
RTVSPropertyOp31
 70
     1
102
RTVSPropertyOp32
 70
     1
  0
XRECORD
  5
32A
102
{ACAD_REACTORS
330
329
102
}
330
329
100
AcDbXrecord
280
     1
102
RTVSPropertyOp0
 70
     1
102
RTVSPropertyOp1
 70
     1
102
RTVSPropertyOp2
 70
     1
102
RTVSPropertyOp3
 70
     1
102
RTVSPropertyOp4
 70
     1
102
RTVSPropertyOp5
 70
     1
102
RTVSPropertyOp6
 70
     1
102
RTVSPropertyOp7
 70
     1
102
RTVSPropertyOp8
 70
     1
102
RTVSPropertyOp9
 70
     1
102
RTVSPropertyOp10
 70
     1
102
RTVSPropertyOp11
 70
     1
102
RTVSPropertyOp12
 70
     1
102
RTVSPropertyOp13
 70
     1
102
RTVSPropertyOp14
 70
     1
102
RTVSPropertyOp15
 70
     1
102
RTVSPropertyOp16
 70
     1
102
RTVSPropertyOp17
 70
     1
102
RTVSPropertyOp18
 70
     1
102
RTVSPropertyOp19
 70
     1
102
RTVSPropertyOp20
 70
     1
102
RTVSPropertyOp21
 70
     1
102
RTVSPropertyOp22
 70
     1
102
RTVSPropertyOp23
 70
     1
102
RTVSPropertyOp24
 70
     1
102
RTVSPropertyOp25
 70
     1
102
RTVSPropertyOp26
 70
     1
102
RTVSPropertyOp27
 70
     1
102
RTVSPropertyOp28
 70
     1
102
RTVSPropertyOp29
 70
     1
102
RTVSPropertyOp30
 70
     1
102
RTVSPropertyOp31
 70
     1
102
RTVSPropertyOp32
 70
     1
  0
XRECORD
  5
328
102
{ACAD_REACTORS
330
327
102
}
330
327
100
AcDbXrecord
280
     1
102
RTVSPropertyOp0
 70
     1
102
RTVSPropertyOp1
 70
     1
102
RTVSPropertyOp2
 70
     1
102
RTVSPropertyOp3
 70
     1
102
RTVSPropertyOp4
 70
     1
102
RTVSPropertyOp5
 70
     1
102
RTVSPropertyOp6
 70
     1
102
RTVSPropertyOp7
 70
     1
102
RTVSPropertyOp8
 70
     1
102
RTVSPropertyOp9
 70
     1
102
RTVSPropertyOp10
 70
     1
102
RTVSPropertyOp11
 70
     1
102
RTVSPropertyOp12
 70
     1
102
RTVSPropertyOp13
 70
     1
102
RTVSPropertyOp14
 70
     1
102
RTVSPropertyOp15
 70
     1
102
RTVSPropertyOp16
 70
     1
102
RTVSPropertyOp17
 70
     1
102
RTVSPropertyOp18
 70
     1
102
RTVSPropertyOp19
 70
     1
102
RTVSPropertyOp20
 70
     1
102
RTVSPropertyOp21
 70
     1
102
RTVSPropertyOp22
 70
     1
102
RTVSPropertyOp23
 70
     1
102
RTVSPropertyOp24
 70
     1
102
RTVSPropertyOp25
 70
     1
102
RTVSPropertyOp26
 70
     1
102
RTVSPropertyOp27
 70
     1
102
RTVSPropertyOp28
 70
     1
102
RTVSPropertyOp29
 70
     1
102
RTVSPropertyOp30
 70
     1
102
RTVSPropertyOp31
 70
     1
102
RTVSPropertyOp32
 70
     1
  0
XRECORD
  5
32C
102
{ACAD_REACTORS
330
32B
102
}
330
32B
100
AcDbXrecord
280
     1
102
RTVSPropertyOp0
 70
     1
102
RTVSPropertyOp1
 70
     1
102
RTVSPropertyOp2
 70
     1
102
RTVSPropertyOp3
 70
     1
102
RTVSPropertyOp4
 70
     1
102
RTVSPropertyOp5
 70
     1
102
RTVSPropertyOp6
 70
     1
102
RTVSPropertyOp7
 70
     1
102
RTVSPropertyOp8
 70
     1
102
RTVSPropertyOp9
 70
     1
102
RTVSPropertyOp10
 70
     1
102
RTVSPropertyOp11
 70
     1
102
RTVSPropertyOp12
 70
     1
102
RTVSPropertyOp13
 70
     1
102
RTVSPropertyOp14
 70
     1
102
RTVSPropertyOp15
 70
     1
102
RTVSPropertyOp16
 70
     1
102
RTVSPropertyOp17
 70
     1
102
RTVSPropertyOp18
 70
     1
102
RTVSPropertyOp19
 70
     1
102
RTVSPropertyOp20
 70
     1
102
RTVSPropertyOp21
 70
     1
102
RTVSPropertyOp22
 70
     1
102
RTVSPropertyOp23
 70
     1
102
RTVSPropertyOp24
 70
     1
102
RTVSPropertyOp25
 70
     1
102
RTVSPropertyOp26
 70
     1
102
RTVSPropertyOp27
 70
     1
102
RTVSPropertyOp28
 70
     1
102
RTVSPropertyOp29
 70
     1
102
RTVSPropertyOp30
 70
     1
102
RTVSPropertyOp31
 70
     1
102
RTVSPropertyOp32
 70
     1
  0
XRECORD
  5
334
102
{ACAD_REACTORS
330
333
102
}
330
333
100
AcDbXrecord
280
     1
102
RTVSPropertyOp0
 70
     1
102
RTVSPropertyOp1
 70
     1
102
RTVSPropertyOp2
 70
     1
102
RTVSPropertyOp3
 70
     1
102
RTVSPropertyOp4
 70
     1
102
RTVSPropertyOp5
 70
     1
102
RTVSPropertyOp6
 70
     1
102
RTVSPropertyOp7
 70
     1
102
RTVSPropertyOp8
 70
     1
102
RTVSPropertyOp9
 70
     1
102
RTVSPropertyOp10
 70
     1
102
RTVSPropertyOp11
 70
     1
102
RTVSPropertyOp12
 70
     1
102
RTVSPropertyOp13
 70
     1
102
RTVSPropertyOp14
 70
     1
102
RTVSPropertyOp15
 70
     1
102
RTVSPropertyOp16
 70
     1
102
RTVSPropertyOp17
 70
     1
102
RTVSPropertyOp18
 70
     1
102
RTVSPropertyOp19
 70
     1
102
RTVSPropertyOp20
 70
     1
102
RTVSPropertyOp21
 70
     1
102
RTVSPropertyOp22
 70
     1
102
RTVSPropertyOp23
 70
     1
102
RTVSPropertyOp24
 70
     1
102
RTVSPropertyOp25
 70
     1
102
RTVSPropertyOp26
 70
     1
102
RTVSPropertyOp27
 70
     1
102
RTVSPropertyOp28
 70
     1
102
RTVSPropertyOp29
 70
     1
102
RTVSPropertyOp30
 70
     1
102
RTVSPropertyOp31
 70
     1
102
RTVSPropertyOp32
 70
     1
  0
XRECORD
  5
33C
102
{ACAD_REACTORS
330
33B
102
}
330
33B
100
AcDbXrecord
280
     1
102
RTVSPropertyOp0
 70
     1
102
RTVSPropertyOp1
 70
     1
102
RTVSPropertyOp2
 70
     1
102
RTVSPropertyOp3
 70
     1
102
RTVSPropertyOp4
 70
     1
102
RTVSPropertyOp5
 70
     1
102
RTVSPropertyOp6
 70
     1
102
RTVSPropertyOp7
 70
     1
102
RTVSPropertyOp8
 70
     1
102
RTVSPropertyOp9
 70
     1
102
RTVSPropertyOp10
 70
     1
102
RTVSPropertyOp11
 70
     1
102
RTVSPropertyOp12
 70
     1
102
RTVSPropertyOp13
 70
     1
102
RTVSPropertyOp14
 70
     1
102
RTVSPropertyOp15
 70
     1
102
RTVSPropertyOp16
 70
     1
102
RTVSPropertyOp17
 70
     1
102
RTVSPropertyOp18
 70
     1
102
RTVSPropertyOp19
 70
     1
102
RTVSPropertyOp20
 70
     1
102
RTVSPropertyOp21
 70
     1
102
RTVSPropertyOp22
 70
     1
102
RTVSPropertyOp23
 70
     1
102
RTVSPropertyOp24
 70
     1
102
RTVSPropertyOp25
 70
     1
102
RTVSPropertyOp26
 70
     1
102
RTVSPropertyOp27
 70
     1
102
RTVSPropertyOp28
 70
     1
102
RTVSPropertyOp29
 70
     1
102
RTVSPropertyOp30
 70
     1
102
RTVSPropertyOp31
 70
     1
102
RTVSPropertyOp32
 70
     1
  0
XRECORD
  5
330
102
{ACAD_REACTORS
330
32F
102
}
330
32F
100
AcDbXrecord
280
     1
102
RTVSPropertyOp0
 70
     1
102
RTVSPropertyOp1
 70
     1
102
RTVSPropertyOp2
 70
     1
102
RTVSPropertyOp3
 70
     1
102
RTVSPropertyOp4
 70
     1
102
RTVSPropertyOp5
 70
     1
102
RTVSPropertyOp6
 70
     1
102
RTVSPropertyOp7
 70
     1
102
RTVSPropertyOp8
 70
     1
102
RTVSPropertyOp9
 70
     1
102
RTVSPropertyOp10
 70
     1
102
RTVSPropertyOp11
 70
     1
102
RTVSPropertyOp12
 70
     1
102
RTVSPropertyOp13
 70
     1
102
RTVSPropertyOp14
 70
     1
102
RTVSPropertyOp15
 70
     1
102
RTVSPropertyOp16
 70
     1
102
RTVSPropertyOp17
 70
     1
102
RTVSPropertyOp18
 70
     1
102
RTVSPropertyOp19
 70
     1
102
RTVSPropertyOp20
 70
     1
102
RTVSPropertyOp21
 70
     1
102
RTVSPropertyOp22
 70
     1
102
RTVSPropertyOp23
 70
     1
102
RTVSPropertyOp24
 70
     1
102
RTVSPropertyOp25
 70
     1
102
RTVSPropertyOp26
 70
     1
102
RTVSPropertyOp27
 70
     1
102
RTVSPropertyOp28
 70
     1
102
RTVSPropertyOp29
 70
     1
102
RTVSPropertyOp30
 70
     1
102
RTVSPropertyOp31
 70
     1
102
RTVSPropertyOp32
 70
     1
  0
XRECORD
  5
332
102
{ACAD_REACTORS
330
331
102
}
330
331
100
AcDbXrecord
280
     1
102
RTVSPropertyOp0
 70
     1
102
RTVSPropertyOp1
 70
     1
102
RTVSPropertyOp2
 70
     1
102
RTVSPropertyOp3
 70
     1
102
RTVSPropertyOp4
 70
     1
102
RTVSPropertyOp5
 70
     1
102
RTVSPropertyOp6
 70
     1
102
RTVSPropertyOp7
 70
     1
102
RTVSPropertyOp8
 70
     1
102
RTVSPropertyOp9
 70
     1
102
RTVSPropertyOp10
 70
     1
102
RTVSPropertyOp11
 70
     1
102
RTVSPropertyOp12
 70
     1
102
RTVSPropertyOp13
 70
     1
102
RTVSPropertyOp14
 70
     1
102
RTVSPropertyOp15
 70
     1
102
RTVSPropertyOp16
 70
     1
102
RTVSPropertyOp17
 70
     1
102
RTVSPropertyOp18
 70
     1
102
RTVSPropertyOp19
 70
     1
102
RTVSPropertyOp20
 70
     1
102
RTVSPropertyOp21
 70
     1
102
RTVSPropertyOp22
 70
     1
102
RTVSPropertyOp23
 70
     1
102
RTVSPropertyOp24
 70
     1
102
RTVSPropertyOp25
 70
     1
102
RTVSPropertyOp26
 70
     1
102
RTVSPropertyOp27
 70
     1
102
RTVSPropertyOp28
 70
     1
102
RTVSPropertyOp29
 70
     1
102
RTVSPropertyOp30
 70
     1
102
RTVSPropertyOp31
 70
     1
102
RTVSPropertyOp32
 70
     1
  0
XRECORD
  5
33A
102
{ACAD_REACTORS
330
339
102
}
330
339
100
AcDbXrecord
280
     1
102
RTVSPropertyOp0
 70
     1
102
RTVSPropertyOp1
 70
     1
102
RTVSPropertyOp2
 70
     1
102
RTVSPropertyOp3
 70
     1
102
RTVSPropertyOp4
 70
     1
102
RTVSPropertyOp5
 70
     1
102
RTVSPropertyOp6
 70
     1
102
RTVSPropertyOp7
 70
     1
102
RTVSPropertyOp8
 70
     1
102
RTVSPropertyOp9
 70
     1
102
RTVSPropertyOp10
 70
     1
102
RTVSPropertyOp11
 70
     1
102
RTVSPropertyOp12
 70
     1
102
RTVSPropertyOp13
 70
     1
102
RTVSPropertyOp14
 70
     1
102
RTVSPropertyOp15
 70
     1
102
RTVSPropertyOp16
 70
     1
102
RTVSPropertyOp17
 70
     1
102
RTVSPropertyOp18
 70
     1
102
RTVSPropertyOp19
 70
     1
102
RTVSPropertyOp20
 70
     1
102
RTVSPropertyOp21
 70
     1
102
RTVSPropertyOp22
 70
     1
102
RTVSPropertyOp23
 70
     1
102
RTVSPropertyOp24
 70
     1
102
RTVSPropertyOp25
 70
     1
102
RTVSPropertyOp26
 70
     1
102
RTVSPropertyOp27
 70
     1
102
RTVSPropertyOp28
 70
     1
102
RTVSPropertyOp29
 70
     1
102
RTVSPropertyOp30
 70
     1
102
RTVSPropertyOp31
 70
     1
102
RTVSPropertyOp32
 70
     1
  0
XRECORD
  5
31E
102
{ACAD_REACTORS
330
31D
102
}
330
31D
100
AcDbXrecord
280
     1
102
RTVSPropertyOp0
 70
     1
102
RTVSPropertyOp1
 70
     1
102
RTVSPropertyOp2
 70
     1
102
RTVSPropertyOp3
 70
     1
102
RTVSPropertyOp4
 70
     1
102
RTVSPropertyOp5
 70
     1
102
RTVSPropertyOp6
 70
     1
102
RTVSPropertyOp7
 70
     1
102
RTVSPropertyOp8
 70
     1
102
RTVSPropertyOp9
 70
     1
102
RTVSPropertyOp10
 70
     1
102
RTVSPropertyOp11
 70
     1
102
RTVSPropertyOp12
 70
     1
102
RTVSPropertyOp13
 70
     1
102
RTVSPropertyOp14
 70
     1
102
RTVSPropertyOp15
 70
     1
102
RTVSPropertyOp16
 70
     1
102
RTVSPropertyOp17
 70
     1
102
RTVSPropertyOp18
 70
     1
102
RTVSPropertyOp19
 70
     1
102
RTVSPropertyOp20
 70
     1
102
RTVSPropertyOp21
 70
     1
102
RTVSPropertyOp22
 70
     1
102
RTVSPropertyOp23
 70
     1
102
RTVSPropertyOp24
 70
     1
102
RTVSPropertyOp25
 70
     1
102
RTVSPropertyOp26
 70
     1
102
RTVSPropertyOp27
 70
     1
102
RTVSPropertyOp28
 70
     1
102
RTVSPropertyOp29
 70
     1
102
RTVSPropertyOp30
 70
     1
102
RTVSPropertyOp31
 70
     1
102
RTVSPropertyOp32
 70
     1
  0
XRECORD
  5
320
102
{ACAD_REACTORS
330
31F
102
}
330
31F
100
AcDbXrecord
280
     1
102
RTVSPropertyOp0
 70
     1
102
RTVSPropertyOp1
 70
     1
102
RTVSPropertyOp2
 70
     1
102
RTVSPropertyOp3
 70
     1
102
RTVSPropertyOp4
 70
     1
102
RTVSPropertyOp5
 70
     1
102
RTVSPropertyOp6
 70
     1
102
RTVSPropertyOp7
 70
     1
102
RTVSPropertyOp8
 70
     1
102
RTVSPropertyOp9
 70
     1
102
RTVSPropertyOp10
 70
     1
102
RTVSPropertyOp11
 70
     1
102
RTVSPropertyOp12
 70
     1
102
RTVSPropertyOp13
 70
     1
102
RTVSPropertyOp14
 70
     1
102
RTVSPropertyOp15
 70
     1
102
RTVSPropertyOp16
 70
     1
102
RTVSPropertyOp17
 70
     1
102
RTVSPropertyOp18
 70
     1
102
RTVSPropertyOp19
 70
     1
102
RTVSPropertyOp20
 70
     1
102
RTVSPropertyOp21
 70
     1
102
RTVSPropertyOp22
 70
     1
102
RTVSPropertyOp23
 70
     1
102
RTVSPropertyOp24
 70
     1
102
RTVSPropertyOp25
 70
     1
102
RTVSPropertyOp26
 70
     1
102
RTVSPropertyOp27
 70
     1
102
RTVSPropertyOp28
 70
     1
102
RTVSPropertyOp29
 70
     1
102
RTVSPropertyOp30
 70
     1
102
RTVSPropertyOp31
 70
     1
102
RTVSPropertyOp32
 70
     1
  0
XRECORD
  5
322
102
{ACAD_REACTORS
330
321
102
}
330
321
100
AcDbXrecord
280
     1
102
RTVSPropertyOp0
 70
     1
102
RTVSPropertyOp1
 70
     1
102
RTVSPropertyOp2
 70
     1
102
RTVSPropertyOp3
 70
     1
102
RTVSPropertyOp4
 70
     1
102
RTVSPropertyOp5
 70
     1
102
RTVSPropertyOp6
 70
     1
102
RTVSPropertyOp7
 70
     1
102
RTVSPropertyOp8
 70
     1
102
RTVSPropertyOp9
 70
     1
102
RTVSPropertyOp10
 70
     1
102
RTVSPropertyOp11
 70
     1
102
RTVSPropertyOp12
 70
     1
102
RTVSPropertyOp13
 70
     1
102
RTVSPropertyOp14
 70
     1
102
RTVSPropertyOp15
 70
     1
102
RTVSPropertyOp16
 70
     1
102
RTVSPropertyOp17
 70
     1
102
RTVSPropertyOp18
 70
     1
102
RTVSPropertyOp19
 70
     1
102
RTVSPropertyOp20
 70
     1
102
RTVSPropertyOp21
 70
     1
102
RTVSPropertyOp22
 70
     1
102
RTVSPropertyOp23
 70
     1
102
RTVSPropertyOp24
 70
     1
102
RTVSPropertyOp25
 70
     1
102
RTVSPropertyOp26
 70
     1
102
RTVSPropertyOp27
 70
     1
102
RTVSPropertyOp28
 70
     1
102
RTVSPropertyOp29
 70
     1
102
RTVSPropertyOp30
 70
     1
102
RTVSPropertyOp31
 70
     1
102
RTVSPropertyOp32
 70
     1
  0
XRECORD
  5
324
102
{ACAD_REACTORS
330
323
102
}
330
323
100
AcDbXrecord
280
     1
102
RTVSPropertyOp0
 70
     1
102
RTVSPropertyOp1
 70
     1
102
RTVSPropertyOp2
 70
     1
102
RTVSPropertyOp3
 70
     1
102
RTVSPropertyOp4
 70
     1
102
RTVSPropertyOp5
 70
     1
102
RTVSPropertyOp6
 70
     1
102
RTVSPropertyOp7
 70
     1
102
RTVSPropertyOp8
 70
     1
102
RTVSPropertyOp9
 70
     1
102
RTVSPropertyOp10
 70
     1
102
RTVSPropertyOp11
 70
     1
102
RTVSPropertyOp12
 70
     1
102
RTVSPropertyOp13
 70
     1
102
RTVSPropertyOp14
 70
     1
102
RTVSPropertyOp15
 70
     1
102
RTVSPropertyOp16
 70
     1
102
RTVSPropertyOp17
 70
     1
102
RTVSPropertyOp18
 70
     1
102
RTVSPropertyOp19
 70
     1
102
RTVSPropertyOp20
 70
     1
102
RTVSPropertyOp21
 70
     1
102
RTVSPropertyOp22
 70
     1
102
RTVSPropertyOp23
 70
     1
102
RTVSPropertyOp24
 70
     1
102
RTVSPropertyOp25
 70
     1
102
RTVSPropertyOp26
 70
     1
102
RTVSPropertyOp27
 70
     1
102
RTVSPropertyOp28
 70
     1
102
RTVSPropertyOp29
 70
     1
102
RTVSPropertyOp30
 70
     1
102
RTVSPropertyOp31
 70
     1
102
RTVSPropertyOp32
 70
     1
  0
XRECORD
  5
338
102
{ACAD_REACTORS
330
337
102
}
330
337
100
AcDbXrecord
280
     1
102
RTVSPropertyOp0
 70
     1
102
RTVSPropertyOp1
 70
     1
102
RTVSPropertyOp2
 70
     1
102
RTVSPropertyOp3
 70
     1
102
RTVSPropertyOp4
 70
     1
102
RTVSPropertyOp5
 70
     1
102
RTVSPropertyOp6
 70
     1
102
RTVSPropertyOp7
 70
     1
102
RTVSPropertyOp8
 70
     1
102
RTVSPropertyOp9
 70
     1
102
RTVSPropertyOp10
 70
     1
102
RTVSPropertyOp11
 70
     1
102
RTVSPropertyOp12
 70
     1
102
RTVSPropertyOp13
 70
     1
102
RTVSPropertyOp14
 70
     1
102
RTVSPropertyOp15
 70
     1
102
RTVSPropertyOp16
 70
     1
102
RTVSPropertyOp17
 70
     1
102
RTVSPropertyOp18
 70
     1
102
RTVSPropertyOp19
 70
     1
102
RTVSPropertyOp20
 70
     1
102
RTVSPropertyOp21
 70
     1
102
RTVSPropertyOp22
 70
     1
102
RTVSPropertyOp23
 70
     1
102
RTVSPropertyOp24
 70
     1
102
RTVSPropertyOp25
 70
     1
102
RTVSPropertyOp26
 70
     1
102
RTVSPropertyOp27
 70
     1
102
RTVSPropertyOp28
 70
     1
102
RTVSPropertyOp29
 70
     1
102
RTVSPropertyOp30
 70
     1
102
RTVSPropertyOp31
 70
     1
102
RTVSPropertyOp32
 70
     1
  0
XRECORD
  5
32E
102
{ACAD_REACTORS
330
32D
102
}
330
32D
100
AcDbXrecord
280
     1
102
RTVSPropertyOp0
 70
     1
102
RTVSPropertyOp1
 70
     1
102
RTVSPropertyOp2
 70
     1
102
RTVSPropertyOp3
 70
     1
102
RTVSPropertyOp4
 70
     1
102
RTVSPropertyOp5
 70
     1
102
RTVSPropertyOp6
 70
     1
102
RTVSPropertyOp7
 70
     1
102
RTVSPropertyOp8
 70
     1
102
RTVSPropertyOp9
 70
     1
102
RTVSPropertyOp10
 70
     1
102
RTVSPropertyOp11
 70
     1
102
RTVSPropertyOp12
 70
     1
102
RTVSPropertyOp13
 70
     1
102
RTVSPropertyOp14
 70
     1
102
RTVSPropertyOp15
 70
     1
102
RTVSPropertyOp16
 70
     1
102
RTVSPropertyOp17
 70
     1
102
RTVSPropertyOp18
 70
     1
102
RTVSPropertyOp19
 70
     1
102
RTVSPropertyOp20
 70
     1
102
RTVSPropertyOp21
 70
     1
102
RTVSPropertyOp22
 70
     1
102
RTVSPropertyOp23
 70
     1
102
RTVSPropertyOp24
 70
     1
102
RTVSPropertyOp25
 70
     1
102
RTVSPropertyOp26
 70
     1
102
RTVSPropertyOp27
 70
     1
102
RTVSPropertyOp28
 70
     1
102
RTVSPropertyOp29
 70
     1
102
RTVSPropertyOp30
 70
     1
102
RTVSPropertyOp31
 70
     1
102
RTVSPropertyOp32
 70
     1
  0
XRECORD
  5
336
102
{ACAD_REACTORS
330
335
102
}
330
335
100
AcDbXrecord
280
     1
102
RTVSPropertyOp0
 70
     1
102
RTVSPropertyOp1
 70
     1
102
RTVSPropertyOp2
 70
     1
102
RTVSPropertyOp3
 70
     1
102
RTVSPropertyOp4
 70
     1
102
RTVSPropertyOp5
 70
     1
102
RTVSPropertyOp6
 70
     1
102
RTVSPropertyOp7
 70
     1
102
RTVSPropertyOp8
 70
     1
102
RTVSPropertyOp9
 70
     1
102
RTVSPropertyOp10
 70
     1
102
RTVSPropertyOp11
 70
     1
102
RTVSPropertyOp12
 70
     1
102
RTVSPropertyOp13
 70
     1
102
RTVSPropertyOp14
 70
     1
102
RTVSPropertyOp15
 70
     1
102
RTVSPropertyOp16
 70
     1
102
RTVSPropertyOp17
 70
     1
102
RTVSPropertyOp18
 70
     1
102
RTVSPropertyOp19
 70
     1
102
RTVSPropertyOp20
 70
     1
102
RTVSPropertyOp21
 70
     1
102
RTVSPropertyOp22
 70
     1
102
RTVSPropertyOp23
 70
     1
102
RTVSPropertyOp24
 70
     1
102
RTVSPropertyOp25
 70
     1
102
RTVSPropertyOp26
 70
     1
102
RTVSPropertyOp27
 70
     1
102
RTVSPropertyOp28
 70
     1
102
RTVSPropertyOp29
 70
     1
102
RTVSPropertyOp30
 70
     1
102
RTVSPropertyOp31
 70
     1
102
RTVSPropertyOp32
 70
     1
  0
ENDSEC
  0
EOF
